ML
     
  Уважаемый Гость!
Вы можете поддержать проект и зарегистрироваться у наших партнеров - онлайн-стратегия MyLands. При регистрации в игре Вы получите код, который сможете активировать после регистрации на pirat.ca и получить 1000 дублонов.

Ваш код:
73640f24f8a0f579e128ea7346fd2db2b1009143
 
     

Русская Окраина: Выпуски 1-3 (Студия "Ромба") [2012-2015 г., Исторический, DVDRip]

Ответить на тему
 
Автор
Сообщение

Пост 18-Мар-2015 13:01

[Q] 

LPPI

-Русская Окраина: Выпуски 1-3- Производство: Украина
Жанр: Исторический
Год выпуска: 2012-2015 г.
Продолжительность: 02:04:16-Режиссер: Студия "Ромба"-Описание: В рамках работы политического клуба "Альтернатива" начинает свою работу межрегиональный проект - студия "Ромба". Ее первым проектом является серия роликов "Русская Окраина".
Русская Идея, Русская культура, Русский Мир - как часто мы произносим эти слова, но что мы вкладываем в само понятие «русские»? Что мы имеем в виду, называя себя русскими?- -Качество видео: DVDRip
Контейнер: AVI
Видео кодек: XviD
Аудио кодек: AC3
Видео: 640x480 (1.33:1), 25 fps, XviD build 50 ~1845 kbps avg, 0.24 bit/pixel
Аудио: 44.100 kHz, MPEG Layer 3, 2 ch, ~128.00 kbps avg
Cубтитры: отсутствуют-
Выпуск 1. Ukraine - на пути к полной ... независимости
01. Как появились украинцы (00:10:01)
02. Кто такие русские (00:09:04)
03. Русофобия (00:09:56)
04. Мы не братья! (00:09:17)
05. Украденное величие (00:07:52)
06. Предателям русского имени (00:02:18)
07. Говерла - гора русская (00:06:47)
08. Русская Галиция (00:12:21)
Выпуск 2. Державный Апокалипсис
09. Нерусская Галиция (00:10:14)
10. Красные наследники русского раскола (00:08:38)
11. Психология маленького украинца или неукраинский национализм (00:07:09)
12. Русский язык на скамье подсудимых (00:12:04)
13. Польский реванш. Смех и жалость (00:08:37)
14. В когтях гордого ''Беркута'' (00:02:47)
15. Русский суицид (00:04:26)
16. Русские и россияне (00:09:11)
Выпуск 3
17. Идеология Русского Мира. Историческое сотворчество (00:08:49)
General
Complete name : D:\Русская Окраина DVDRip\01. Как появились украинцы.avi
Format : AVI
Format/Info : Audio Video Interleave
File size : 139 MiB
Duration : 10mn 1s
Overall bit rate : 1 942 Kbps
Video
ID : 0
Format : MPEG-4 Visual
Format profile : Advanced [email protected]
Format settings, BVOP : 2
Format settings, QPel : No
Format settings, GMC : No warppoints
Format settings, Matrix : Default (H.263)
Codec ID : XVID
Codec ID/Hint : XviD
Duration : 10mn 1s
Bit rate : 1 802 Kbps
Width : 640 pixels
Height : 480 pixels
Display aspect ratio : 4:3
Frame rate : 25.000 fps
Color space : YUV
Chroma subsampling : 4:2:0
Bit depth : 8 bits
Scan type : Progressive
Compression mode : Lossy
Bits/(Pixel*Frame) : 0.235
Stream size : 129 MiB (93%)
Writing library : XviD 1.2.1 (UTC 2008-12-04)
Audio
ID : 1
Format : MPEG Audio
Format version : Version 1
Format profile : Layer 3
Mode : Joint stereo
Mode extension : MS Stereo
Codec ID : 55
Codec ID/Hint : MP3
Duration : 6mn 32s
Source duration : 10mn 0s
Bit rate mode : Constant
Bit rate : 128 Kbps
Channel(s) : 2 channels
Sampling rate : 44.1 KHz
Compression mode : Lossy
Stream size : 9.17 MiB (7%)
Alignment : Aligned on interleaves
Interleave, duration : 26 ms (0.65 video frame)
Writing library : LAME3.98.2
-Скриншоты:--
Download / Скачать

Хотите скачать бесплатно? Зарегистрируйтесь на сайте (ссылка на регистрацию). Pirat.ca - самый быстрый торрент трекер в рунете!

Как скачивать  ·   Что такое торрент  ·   Рейтинг и ограничения

poisk91

Штурман

Пост 18-Мар-2015 15:19 (спустя 2 часа 18 минут)

[Q] 

скоро все хохлы передохнут сами
[Профиль]  [ЛС] 

Loxly

Гроза морей

Пост 18-Мар-2015 19:02 (спустя 3 часа)

[Q] 

Ссылки на исторические документы есть? Или опять пропаганда и версии?
[Профиль]  [ЛС] 

UcrusPazzo

7670

Пост 18-Мар-2015 22:46 (спустя 3 часа)

[Q] 

657277Ссылки на исторические документы есть? Или опять пропаганда и версии?
Все есть! Видите последний скрин? Чем вам не исторический документ? ))

_________________
[Профиль]  [ЛС] 

karloej

Лоцман

Пост 19-Мар-2015 10:08 (спустя 11 часов)

[Q] 

бред ck be
[Профиль]  [ЛС] 

Frayerok

Лоцман

Пост 19-Мар-2015 16:38 (спустя 6 часов)

[Q] 

657494бред ck be
да не, все норм, рассказывают о украинском заблуждении, только мы(Русские) это все и так знаем, а они этого просто не хотят знать и помнить.
[Профиль]  [ЛС] 

avn2015

Корсар

Пост 31-Окт-2015 20:19 (спустя 7 месяцев 12 дней)

[Q] 

Спасибо!!!
[Профиль]  [ЛС] 
Показать сообщения:    
Ответить на тему

Текущее время: Сегодня 22:34

Часовой пояс: GMT + 4



Вы не можете начинать темы
Вы не можете отвечать на сообщения
Вы не можете редактировать свои сообщения
Вы не можете удалять свои сообщения
Вы не можете голосовать в опросах
Вы не можете прикреплять файлы к сообщениям
Вы не можете скачивать файлы

▼ Вниз