ML
     
  Уважаемый Гость!
Вы можете поддержать проект и зарегистрироваться у наших партнеров - онлайн-стратегия MyLands. При регистрации в игре Вы получите код, который сможете активировать после регистрации на pirat.ca и получить 1000 дублонов.

Ваш код:
e6008d9811a0b6a1393c3dc51ecd7bc35637bc21
 
     

BBC: История возникновения лекарств / Pain, Pus and Poison: The Search for Modern Medicines / Сезон: 1 / Серии: 1-3 (Ben Crichton, Алекс Фриман, Джиллз Харрисон) [2013 г., документальный, BDRip-AVC, 720p] [Sub (Eng), + Original (Eng)]

Ответить на тему
 
Автор
Сообщение

Пост 09-Апр-2015 00:34

[Q] 

Zamuka

Лоцман

-BBC: История возникновения лекарств / Pain, Pus and Poison: The Search for Modern Medicines-- Производство: Великобритания, BBC four HD
Жанр: документальный
Год выпуска: 2013 г.
Продолжительность: 3 х 00:59:00 (approx)
Перевод: Отсутствует
Оригинальный аудиопоток: английский
Режиссер: Ben Crichton, Алекс Фриман, Джиллз Харрисон-В ролях: Michael J. Mosley-Описание: Британский врач и журналист Майкл Мосли проверяет на себе величайшие исторические изобретения в области медицины. Из этого минисериала вы узнаете множество исторических фактов о изобретении лекарств, которые, как нам кажется были всегда.
К сожалению подобрать русский перевод пока не удалось, так как все доступные на данный момент раздачи с переводом короче этой версии на несколько минут.
Данная раздача предназначается тем, что может свободно смотреть на английском языке, а также, я надеюсь, постепенно обзаведется переводом.
Качество видео значительно лучше всех виденных раздач.-
Качество видео: BDRip-AVC
Контейнер: MKV
Стандарт разрешения: 720p
Видео кодек: MPEG4 AVC
Аудио кодек: AC3
Видео: 1280x720px (16:9), 2 697 Kbps, 25.000 fps
Аудио: AC-3, 192 Kbps, 2 ch, 48.0 KHz
Cубтитры: английские (отдельно)
Формат субтитров: softsub (SRT)
Доп. информация о субтитрах: субтитры к первой серии имеют дефект и по этой причине не вшиты внутрь MKV файла
General
Unique ID : 175676760551608082253660095389067962837 (0x842A1D05AE3ABDD19A2A836BC458E9D5)
Complete name : D:\movie\ppp\Pain.Pus.and.Poison.The.Search.for.Modern.Medicines - (S01E01).Pain - 2013.720p.AC3.mkv
Format : Matroska
Format version : Version 4 / Version 2
File size : 1.22 GiB
Duration : 59mn 23s
Overall bit rate : 2 948 Kbps
Encoded date : UTC 2014-01-26 12:09:20
Writing application : mkvmerge v6.7.0 ('Back to the Ground') 32bit built on Jan 8 2014 15:03:17
Writing library : libebml v1.3.0 + libmatroska v1.4.1
Video
ID : 1
Format : AVC
Format/Info : Advanced Video Codec
Format profile : [email protected]
Format settings, CABAC : Yes
Format settings, ReFrames : 5 frames
Codec ID : V_MPEG4/ISO/AVC
Duration : 59mn 23s
Bit rate : 2 697 Kbps
Width : 1 280 pixels
Height : 720 pixels
Display aspect ratio : 16:9
Frame rate mode : Constant
Frame rate : 25.000 fps
Color space : YUV
Chroma subsampling : 4:2:0
Bit depth : 8 bits
Scan type : Progressive
Bits/(Pixel*Frame) : 0.117
Stream size : 1.12 GiB (91%)
Writing library : x264 core 140 r2377 1ca7bb9
Encoding settings : cabac=1 / ref=5 / deblock=1:-3:-3 / analyse=0x3:0x133 / me=umh / subme=10 / psy=1 / psy_rd=1.00:0.15 / mixed_ref=1 / me_range=32 / chroma_me=1 / trellis=2 / 8x8dct=1 / cqm=0 / deadzone=21,11 / fast_pskip=1 / chroma_qp_offset=-3 / threads=18 / lookahead_threads=1 / sliced_threads=0 / nr=0 / decimate=1 / interlaced=0 / bluray_compat=0 / constrained_intra=0 / bframes=3 / b_pyramid=2 / b_adapt=2 / b_bias=0 / direct=3 / weightb=1 / open_gop=0 / weightp=2 / keyint=250 / keyint_min=25 / scenecut=40 / intra_refresh=0 / rc_lookahead=180 / rc=crf / mbtree=1 / crf=19.0 / qcomp=0.80 / qpmin=0 / qpmax=69 / qpstep=4 / vbv_maxrate=38000 / vbv_bufsize=38000 / crf_max=0.0 / nal_hrd=none / filler=0 / ip_ratio=1.40 / aq=1:1.00
Default : Yes
Forced : No
Audio
ID : 2
Format : AC-3
Format/Info : Audio Coding 3
Mode extension : CM (complete main)
Format settings, Endianness : Big
Codec ID : A_AC3
Duration : 59mn 23s
Bit rate mode : Constant
Bit rate : 192 Kbps
Channel(s) : 2 channels
Channel positions : Front: L R
Sampling rate : 48.0 KHz
Bit depth : 16 bits
Compression mode : Lossy
Stream size : 81.6 MiB (7%)
Language : English
Default : Yes
Forced : No
General
Unique ID : 232359242594786587689466815013436567009 (0xAECEC3273259211896AA1BE42AB8ADE1)
Complete name : D:\movie\ppp\Pain.Pus.and.Poison.The.Search.for.Modern.Medicines - (S01E02).Pus - 2013.720p.AC3.mkv
Format : Matroska
Format version : Version 4 / Version 2
File size : 1.62 GiB
Duration : 58mn 46s
Overall bit rate : 3 945 Kbps
Encoded date : UTC 2014-02-03 10:01:57
Writing application : mkvmerge v6.7.0 ('Back to the Ground') 32bit built on Jan 8 2014 15:03:17
Writing library : libebml v1.3.0 + libmatroska v1.4.1
Video
ID : 1
Format : AVC
Format/Info : Advanced Video Codec
Format profile : [email protected]
Format settings, CABAC : Yes
Format settings, ReFrames : 5 frames
Codec ID : V_MPEG4/ISO/AVC
Duration : 58mn 46s
Bit rate : 3 675 Kbps
Width : 1 280 pixels
Height : 720 pixels
Display aspect ratio : 16:9
Frame rate mode : Constant
Frame rate : 25.000 fps
Color space : YUV
Chroma subsampling : 4:2:0
Bit depth : 8 bits
Scan type : Progressive
Bits/(Pixel*Frame) : 0.159
Stream size : 1.51 GiB (93%)
Writing library : x264 core 142 r2389 956c8d8
Encoding settings : cabac=1 / ref=5 / deblock=1:-3:-3 / analyse=0x3:0x133 / me=umh / subme=10 / psy=1 / psy_rd=1.00:0.15 / mixed_ref=1 / me_range=32 / chroma_me=1 / trellis=2 / 8x8dct=1 / cqm=0 / deadzone=21,11 / fast_pskip=1 / chroma_qp_offset=-3 / threads=18 / lookahead_threads=1 / sliced_threads=0 / nr=0 / decimate=1 / interlaced=0 / bluray_compat=0 / constrained_intra=0 / bframes=3 / b_pyramid=2 / b_adapt=2 / b_bias=0 / direct=3 / weightb=1 / open_gop=0 / weightp=2 / keyint=250 / keyint_min=25 / scenecut=40 / intra_refresh=0 / rc_lookahead=180 / rc=crf / mbtree=1 / crf=19.0 / qcomp=0.80 / qpmin=0 / qpmax=69 / qpstep=4 / vbv_maxrate=38000 / vbv_bufsize=38000 / crf_max=0.0 / nal_hrd=none / filler=0 / ip_ratio=1.40 / aq=1:1.00
Default : Yes
Forced : No
Audio
ID : 2
Format : AC-3
Format/Info : Audio Coding 3
Mode extension : CM (complete main)
Format settings, Endianness : Big
Codec ID : A_AC3
Duration : 58mn 46s
Bit rate mode : Constant
Bit rate : 192 Kbps
Channel(s) : 2 channels
Channel positions : Front: L R
Sampling rate : 48.0 KHz
Bit depth : 16 bits
Compression mode : Lossy
Stream size : 80.7 MiB (5%)
Language : English
Default : Yes
Forced : No
eneral
Unique ID : 188725358607346124258523403855105713530 (0x8DFB2E93AA9A618A84F1302C33ED657A)
Complete name : D:\movie\ppp\Pain.Pus.and.Poison.The.Search.for.Modern.Medicines - (S01E03).Poison - 2013.720p.AC3.mkv
Format : Matroska
Format version : Version 4 / Version 2
File size : 1.51 GiB
Duration : 58mn 50s
Overall bit rate : 3 662 Kbps
Encoded date : UTC 2014-02-09 14:49:36
Writing application : mkvmerge v6.7.0 ('Back to the Ground') 32bit built on Jan 8 2014 15:03:17
Writing library : libebml v1.3.0 + libmatroska v1.4.1
Video
ID : 1
Format : AVC
Format/Info : Advanced Video Codec
Format profile : [email protected]
Format settings, CABAC : Yes
Format settings, ReFrames : 5 frames
Codec ID : V_MPEG4/ISO/AVC
Duration : 58mn 50s
Bit rate : 3 397 Kbps
Width : 1 280 pixels
Height : 720 pixels
Display aspect ratio : 16:9
Frame rate mode : Constant
Frame rate : 25.000 fps
Color space : YUV
Chroma subsampling : 4:2:0
Bit depth : 8 bits
Scan type : Progressive
Bits/(Pixel*Frame) : 0.147
Stream size : 1.40 GiB (93%)
Writing library : x264 core 142 r2389 956c8d8
Encoding settings : cabac=1 / ref=5 / deblock=1:-3:-3 / analyse=0x3:0x133 / me=umh / subme=10 / psy=1 / psy_rd=1.00:0.15 / mixed_ref=1 / me_range=32 / chroma_me=1 / trellis=2 / 8x8dct=1 / cqm=0 / deadzone=21,11 / fast_pskip=1 / chroma_qp_offset=-3 / threads=18 / lookahead_threads=1 / sliced_threads=0 / nr=0 / decimate=1 / interlaced=0 / bluray_compat=0 / constrained_intra=0 / bframes=3 / b_pyramid=2 / b_adapt=2 / b_bias=0 / direct=3 / weightb=1 / open_gop=0 / weightp=2 / keyint=250 / keyint_min=25 / scenecut=40 / intra_refresh=0 / rc_lookahead=180 / rc=crf / mbtree=1 / crf=19.0 / qcomp=0.80 / qpmin=0 / qpmax=69 / qpstep=4 / vbv_maxrate=38000 / vbv_bufsize=38000 / crf_max=0.0 / nal_hrd=none / filler=0 / ip_ratio=1.40 / aq=1:1.00
Default : Yes
Forced : No
Audio
ID : 2
Format : AC-3
Format/Info : Audio Coding 3
Mode extension : CM (complete main)
Format settings, Endianness : Big
Codec ID : A_AC3
Duration : 58mn 50s
Bit rate mode : Constant
Bit rate : 192 Kbps
Channel(s) : 2 channels
Channel positions : Front: L R
Sampling rate : 48.0 KHz
Bit depth : 16 bits
Compression mode : Lossy
Stream size : 80.8 MiB (5%)
Language : English
Default : Yes
Forced : No
Download / Скачать

Хотите скачать бесплатно? Зарегистрируйтесь на сайте (ссылка на регистрацию). Pirat.ca - самый быстрый торрент трекер в рунете!

Как скачивать  ·   Что такое торрент  ·   Рейтинг и ограничения



Последний раз редактировалось: Zamuka (2015-04-12 22:38), всего редактировалось 2 раз(а)

pdb08

Легенда

Пост 09-Апр-2015 00:36 (спустя 1 минута)

[Q] 

О как! Спасибо!

_________________
[Профиль]  [ЛС] 

UcrusPazzo

7670

Пост 09-Апр-2015 20:42 (спустя 20 часов)

[Q] 

1. Постер на хостинг залейте, как скриншоты залиты
2. Продолжительность указывается в формате: 3 х 00:00:00

_________________
[Профиль]  [ЛС] 

Zamuka ®

Лоцман

2

Пост 12-Апр-2015 22:41 (спустя 3 дня)

[Q] 

Поправил. Если появится перевод, я вошью и обновлю раздачу.
Или буду пробовать наложить перевод с пробелами
[Профиль]  [ЛС] 
Показать сообщения:    
Ответить на тему

Текущее время: Сегодня 02:01

Часовой пояс: GMT + 4



Вы не можете начинать темы
Вы не можете отвечать на сообщения
Вы не можете редактировать свои сообщения
Вы не можете удалять свои сообщения
Вы не можете голосовать в опросах
Вы не можете прикреплять файлы к сообщениям
Вы не можете скачивать файлы

▼ Вниз