ML
     
  Уважаемый Гость!
Вы можете поддержать проект и зарегистрироваться у наших партнеров - онлайн-стратегия MyLands. При регистрации в игре Вы получите код, который сможете активировать после регистрации на pirat.ca и получить 1000 дублонов.

Ваш код:
47bfc18b89c74e4ae0d974e9b6943639e2bff08e
 
     

Citizenfour: Правда Сноудена / Citizenfour (Лора Пойтрас / Laura Poitras) [2014 г., документальный, HDRip] Dub [Чистый звук]

Ответить на тему
 
Автор
Сообщение

Пост 11-Сен-2015 12:48

[Q] 

aleksey99

--Citizenfour: Правда Сноудена / Citizenfour-- Производство: США, Германия, Великобритания, HBO Documentary Films, Participant Media, Praxis Films
Год выпуска: 2014 г.
Жанр: документальный
Продолжительность: 01:53:25--Мировая премьера: 10 октября 2014
Российская премьера: 9 июля 2015, «Мульт в кино», «24_DOC»--Перевод: Профессиональный (полное дублирование) [Чистый звук]--Режиссер: Лора Пойтрас / Laura Poitras--В ролях: Эдвард Сноуден, Джейкоб Эпплбаум, Джулиан Ассанж, Уилльям Бинней, Гленн Гринвальд, Ивен МакАскилл, Линдсей Миллс, Лора Пойтрас--Описание: В январе 2013 года Лора Пойтрас стала получать анонимные зашифрованные электронные письма от человека по имени «CITIZENFOUR», который утверждал, что у него есть доказательства существования нелегальных программ скрытого наблюдения, которое ведет АНБ в сотрудничестве с другими спецслужбами по всему миру.
Пять месяцев спустя она и журналисты Гленн Гринвальд и Ивен МакАскилл прилетели в Гонконг для первой из многих встреч с этим человеком. Им оказался Эдвард Сноуден.-- --Качество видео: HDRip
Контейнер: AVI
Видео кодек: XviD
Аудио кодек: AC3
Видео: 720x400 (1.80:1), 24 fps, XviD build 50 ~1634 kbps avg, 0.24 bit/pixel
Аудио: 48 kHz, AC3 Dolby Digital, 2/0 (L,R) ch, ~192 kbps
Cубтитры: отсутствуют.
Общее
Полное имя : F:\Torent 2\7iti3en4.2014.D.HDRip.avi
Формат : AVI
Формат/Информация : Audio Video Interleave
Размер файла : 1,45 Гбайт
Продолжительность : 1 ч. 53 м.
Общий поток : 1836 Кбит/сек
Программа кодирования : VirtualDubMod 1.5.10.3 | www.virtualdub-fr.org || (build 2550/release)
Библиотека кодирования : VirtualDubMod build 2550/release
Видео
Идентификатор : 0
Формат : MPEG-4 Visual
Профиль формата : Advanced [email protected]
Параметр BVOP формата : 2
Параметр QPel формата : Нет
Параметр GMC формата : Без точки перехода
Параметр матрицы формата : Default (MPEG)
Идентификатор кодека : XVID
Идентификатор кодека/Подсказка : XviD
Продолжительность : 1 ч. 53 м.
Битрейт : 1635 Кбит/сек
Ширина : 720 пикселей
Высота : 400 пикселей
Соотношение сторон : 16:9
Частота кадров : 24,000 кадра/сек
Цветовое пространство : YUV
Субдискретизация насыщенности : 4:2:0
Битовая глубина : 8 бит
Тип развёртки : Прогрессивная
Метод сжатия : С потерями
Бит/(Пиксели*Кадры) : 0.237
Размер потока : 1,30 Гбайт (89%)
Библиотека кодирования : XviD 1.2.1 (UTC 2008-12-04)
Аудио
Идентификатор : 1
Формат : AC-3
Формат/Информация : Audio Coding 3
Расширение режима : CM (complete main)
Параметр Endianness формата : Big
Идентификатор кодека : 2000
Продолжительность : 1 ч. 53 м.
Вид битрейта : Постоянный
Битрейт : 192 Кбит/сек
Каналы : 2 канала
Расположение каналов : Front: L R
Частота : 48,0 КГц
Метод сжатия : С потерями
Размер потока : 156 Мбайт (10%)
Выравнивание : Разделение по промежуткам
Продолжительность промежутка : 42 мс. (1,00 видеокадр)
Время предзагрузки промежутка : 500 мс.
Трейлер
Download / Скачать

Хотите скачать бесплатно? Зарегистрируйтесь на сайте (ссылка на регистрацию). Pirat.ca - самый быстрый торрент трекер в рунете!

Как скачивать  ·   Что такое торрент  ·   Рейтинг и ограничения

koljan-2008

Флибустьер

5

Пост 11-Сен-2015 12:55 (спустя 6 минут)

[Q] 

Послушаем, что ещё он нам скажет про прослушку :-)

_________________
6/45 С/П Мой!
[Профиль]  [ЛС] 

dj421520

Пост 12-Сен-2015 20:05 (спустя 1 день 7 часов)

[Q] 

УУУУ и что сказал то
[Профиль]  [ЛС] 

GrappLeR

Шкипер

Пост 15-Сен-2015 21:35 (спустя 3 дня)

[Q] 

пожалуй и я послушаю Спасибо!!!
[Профиль]  [ЛС] 

avn2015

Корсар

Пост 31-Окт-2015 20:03 (спустя 1 месяц 15 дней)

[Q] 

. Спасибо!!!
[Профиль]  [ЛС] 
Показать сообщения:    
Ответить на тему

Текущее время: Сегодня 07:05

Часовой пояс: GMT + 4



Вы не можете начинать темы
Вы не можете отвечать на сообщения
Вы не можете редактировать свои сообщения
Вы не можете удалять свои сообщения
Вы не можете голосовать в опросах
Вы не можете прикреплять файлы к сообщениям
Вы не можете скачивать файлы

▼ Вниз