ML
     
  Уважаемый Гость!
Вы можете поддержать проект и зарегистрироваться у наших партнеров - онлайн-стратегия MyLands. При регистрации в игре Вы получите код, который сможете активировать после регистрации на pirat.ca и получить 1000 дублонов.

Ваш код:
5f4e94775bc0501caff7b254e79328d304c817d9
 
     

Как я дружил в социальной сети / Catfish (Генри Джуст / Henry Joost, Эриель Шульман / Ariel Schulman) [2010 г., Документальный, HDRip-AVC] MVO

Ответить на тему
 
Автор
Сообщение

Пост 27-Янв-2012 01:07

[Q] 

UcrusPazzo

Как я дружил в социальной сети / Catfish«Don't let anyone tell you what it is.» -Год выпуска: 2010
Мировая премьера: 22 января 2010, США, кинофестиваль «Сандэнс»
Российская премьера: 17 марта 2011, «Премиум Фильм»
Дата выхода DVD: 14 апреля 2011, «CP-Digital»
Производство: США
Жанр: Документальный
Продолжительность серии: 01:27:21
Перевод: Профессиональный (многоголосый, закадровый)
Оригинальный аудиопоток: английский
Субтитры: русские-Режиссер: Генри Джуст / Henry Joost, Эриель Шульман / Ariel Schulman
Продюсер: Эндрю Джареки, Генри Джуст, Эриель Шульман
Композитор: Марк Мазерсбо
Монтаж: Захари Стюарт-Понтье-Зрители: 4.7 тыс.
Рейтинг MPAA: детям до 13 лет просмотр не желателен-В ролях: Мелоди С. Рошер, Эриель Шульман, Янив Шульман, Энджела Уэльсман-Пирс-Описание: Однажды нью-йоркский редактор Нев, познакомившись с юной художницей и ее мамой, случайно зафрендил в социальной сети ее старшую сестру Меган Фаччио. Так началась онлайн-дружба Нева и Меган, развитие которой решили задокументировать на видео два молодых режиссера.
Приятный флирт превращается в горячее желание Нева перейти «из онлайна в реал» в отношениях с красоткой. Но растет и подозрение, что Меган — не та, за кого себя выдает. Чтобы узнать правду, трое друзей решаются на путешествие, которое изменит их жизнь навсегда.-Источник/Качество: HDRip-AVC
Формат: WMV
Видео кодек: H.26x
Аудио кодек: AC3
Видео: 2668 Кбит/сек; 1040х560 (1,857); в 23,976 кадра/сек; AVC ([email protected]) (CABAC / 11 Ref Frames)
Аудио: Russian; 228 Кбит/сек; 48,0 КГц; 16 бит; 6 каналов; АС-3
Аудио #2: English; 228 Кбит/сек; 48,0 КГц; 16 бит; 6 каналов; АС-3
Формат субтитров: softsub (SRT)
Общее
Уникальный идентификатор : 210146820368100096421056216034362492927 (0x9E18CE2F1E4C1C48B84E355E9E4F87FF)
Формат : Matroska
Версия формата : Version 2
Размер файла : 2,16 Гбайт
Продолжительность : 1 ч. 27 м.
Общий поток : 3548 Кбит/сек
Название фильма : avproh
Дата кодирования : UTC 2011-04-15 08:35:44
Программа кодирования : mkvmerge v4.6.0 ('Still Crazy After All These Years') сборка от Mar 10 2011 02:50:32
Библиотека кодирования : libebml v1.2.0 + libmatroska v1.1.0
Видео
Идентификатор : 1
Формат : AVC
Формат/Информация : Advanced Video Codec
Профиль формата : [email protected]
Параметр CABAC формата : Да
Параметр ReFrames формата : 11 кадров
Идентификатор кодека : V_MPEG4/ISO/AVC
Продолжительность : 1 ч. 27 м.
Битрейт : 2668 Кбит/сек
Ширина : 1040 пикселей
Высота : 560 пикселей
Соотношение сторон : 1,857
Частота кадров : 23,976 кадра/сек
Цветовое пространство : YUV
Субдискретизация насыщенности : 4:2:0
Битовая глубина : 8 бит
Тип развёртки : Прогрессивная
Бит/(Пиксели*Кадры) : 0.191
Размер потока : 1,57 Гбайт (73%)
Библиотека кодирования : x264 core 114 r1913 5fd3dce
Настройки программы : cabac=1 / ref=11 / deblock=1:-2:-1 / analyse=0x3:0x113 / me=umh / subme=9 / psy=1 / psy_rd=1.00:0.10 / mixed_ref=1 / me_range=32 / chroma_me=1 / trellis=2 / 8x8dct=1 / cqm=0 / deadzone=21,11 / fast_pskip=1 / chroma_qp_offset=-3 / threads=9 / sliced_threads=0 / nr=0 / decimate=1 / interlaced=0 / constrained_intra=0 / bframes=10 / b_pyramid=2 / b_adapt=2 / b_bias=0 / direct=3 / weightb=1 / open_gop=0 / weightp=0 / keyint=250 / keyint_min=23 / scenecut=40 / intra_refresh=0 / rc_lookahead=80 / rc=2pass / mbtree=1 / bitrate=2668 / ratetol=1.0 / qcomp=0.60 / qpmin=0 / qpmax=69 / qpstep=4 / cplxblur=20.0 / qblur=0.5 / ip_ratio=1.40 / aq=2:0.90
Язык : English
Default : Да
Forced : Нет
Аудио #1
Идентификатор : 2
Формат : AC-3
Формат/Информация : Audio Coding 3
Расширение режима : CM (complete main)
Идентификатор кодека : A_AC3
Продолжительность : 1 ч. 27 м.
Вид битрейта : Постоянный
Битрейт : 448 Кбит/сек
Каналы : 6 каналов
Расположение каналов : Front: L C R, Side: L R, LFE
Частота : 48,0 КГц
Битовая глубина : 16 бит
Метод сжатия : С потерями
Размер потока : 280 Мбайт (13%)
Язык : Russian
Default : Да
Forced : Нет
Аудио #2
Идентификатор : 3
Формат : AC-3
Формат/Информация : Audio Coding 3
Расширение режима : CM (complete main)
Идентификатор кодека : A_AC3
Продолжительность : 1 ч. 27 м.
Вид битрейта : Постоянный
Битрейт : 448 Кбит/сек
Каналы : 6 каналов
Расположение каналов : Front: L C R, Side: L R, LFE
Частота : 48,0 КГц
Битовая глубина : 16 бит
Метод сжатия : С потерями
Размер потока : 280 Мбайт (13%)
Язык : English
Default : Нет
Forced : Нет
Текст
Идентификатор : 4
Формат : UTF-8
Идентификатор кодека : S_TEXT/UTF8
Идентификатор кодека/Информация : UTF-8 Plain Text
Язык : Russian
Default : Нет
Forced : Нет
Меню
00:00:00.000 : en:00:00:00.000
00:04:29.311 : en:00:04:29.311
00:08:26.840 : en:00:08:26.840
00:13:10.456 : en:00:13:10.456
00:19:08.397 : en:00:19:08.397
00:26:06.732 : en:00:26:06.732
00:32:58.351 : en:00:32:58.351
00:36:54.212 : en:00:36:54.212
00:41:13.763 : en:00:41:13.763
00:44:57.570 : en:00:44:57.570
00:50:54.677 : en:00:50:54.677
00:54:05.409 : en:00:54:05.409
00:58:18.120 : en:00:58:18.120
01:02:16.066 : en:01:02:16.066
01:06:17.432 : en:01:06:17.432
01:09:50.812 : en:01:09:50.812
01:14:15.451 : en:01:14:15.451
01:18:54.980 : en:01:18:54.980
01:21:09.073 : en:01:21:09.073
01:24:52.087 : en:01:24:52.087
Download / Скачать

Хотите скачать бесплатно? Зарегистрируйтесь на сайте (ссылка на регистрацию). Pirat.ca - самый быстрый торрент трекер в рунете!

Как скачивать  ·   Что такое торрент  ·   Рейтинг и ограничения

Показать сообщения:    
Ответить на тему

Текущее время: Сегодня 15:35

Часовой пояс: GMT + 4



Вы не можете начинать темы
Вы не можете отвечать на сообщения
Вы не можете редактировать свои сообщения
Вы не можете удалять свои сообщения
Вы не можете голосовать в опросах
Вы не можете прикреплять файлы к сообщениям
Вы не можете скачивать файлы

▼ Вниз