ML
     
  Уважаемый Гость!
Вы можете поддержать проект и зарегистрироваться у наших партнеров - онлайн-стратегия MyLands. При регистрации в игре Вы получите код, который сможете активировать после регистрации на pirat.ca и получить 1000 дублонов.

Ваш код:
a01a592a88af5f9996a6d1baec61b18a1769954d
 
     

Кто обманет Пенна и Теллера? / Penn & Teller: Fool Us (Сезон: 1 / Серии: 1-9 из 9) [2011 г., Документальный, комедия, TVRip] MVO [ТВ-3]

Ответить на тему
 
Автор
Сообщение

Пост 27-Янв-2012 16:03

[Q] 

Novvy

Корсар

-Кто обманет Пенна и Теллера?-Penn & Teller: Fool Us -Сезон: 1-Серии: 1-9 из 9- Год выпуска: 2010
Производство: Великобритания
Жанр: Документальный, комедия
Продолжительность серии: 00:40:00
Перевод: Профессиональный (многоголосый, закадровый)
Автор(ы) перевода: ТВ-3
Субтитры: отсутствуют-В ролях: Пенн Джиллет, Джонатан Роуз, Рэймонд Джозеф Теллер-Описание: Они потрясают, они завораживают. Они - всемирно-известные иллюзионисты, их почти невозможно обмануть или удивить, они знают абсолютн6о всё о фокусах. Их фокусы снимаются на одном дыхании, с одного дубля. Никаких спецэффектов, никакой компьютерной графики, только магия. Пенн и Теллер внимательно наблюдают за участниками своего шоу и не только разгадывают их секреты, но и сами с лёгкостью, повторяют только что увиденные трюки.
- -Источник/Качество: TVRip
Формат: AVI
Видео кодек: XviD
Аудио кодек: MP3
Видео: 704x400, 25 fps, XviD, 1000/1500 kbps avg, 0.142 bit/pixel
Аудио: 22 kHz, MPEG Layer 3, 2 ch, 128.00 kbps avg
-
Код:
General
Complete name                    : D:\Фильмы\_PennTellerTV3\Kto.Obmanet.Penna.I.Tellera.(1.iz.9)avi
Format                           : AVI
Format/Info                      : Audio Video Interleave
File size                        : 507 MiB
Duration                         : 1h 2mn
Overall bit rate                 : 1 138 Kbps
Writing application              : VirtualDubMod 1.5.10.2 (build 2542/release)
Writing library                  : VirtualDubMod build 2542/release
Video
ID                               : 0
Format                           : MPEG-4 Visual
Format profile                   : [email protected]
Format settings, BVOP            : No
Format settings, QPel            : No
Format settings, GMC             : No warppoints
Format settings, Matrix          : Default (H.263)
Codec ID                         : XVID
Codec ID/Hint                    : XviD
Duration                         : 1h 2mn
Bit rate                         : 1 000 Kbps
Width                            : 704 pixels
Height                           : 400 pixels
Display aspect ratio             : 16:9
Frame rate                       : 25.000 fps
Color space                      : YUV
Chroma subsampling               : 4:2:0
Bit depth                        : 8 bits
Scan type                        : Progressive
Compression mode                 : Lossy
Bits/(Pixel*Frame)               : 0.142
Stream size                      : 446 MiB (88%)
Writing library                  : XviD 1.2.1 (UTC 2008-12-04)
Audio
ID                               : 1
Format                           : MPEG Audio
Format version                   : Version 2
Format profile                   : Layer 3
Codec ID                         : 55
Codec ID/Hint                    : MP3
Duration                         : 1h 2mn
Bit rate mode                    : Constant
Bit rate                         : 128 Kbps
Channel(s)                       : 2 channels
Sampling rate                    : 22.05 KHz
Compression mode                 : Lossy
Stream size                      : 57.0 MiB (11%)
Alignment                        : Split accross interleaves
Interleave, duration             : 40 ms (1.00 video frame)
Interleave, preload duration     : 500 ms
Writing library                  : LAME3.98r
Encoding settings                : -m s -V 4 -q 7 -lowpass 11 -b 128
-
-
Download / Скачать

Хотите скачать бесплатно? Зарегистрируйтесь на сайте (ссылка на регистрацию). Pirat.ca - самый быстрый торрент трекер в рунете!

Как скачивать  ·   Что такое торрент  ·   Рейтинг и ограничения

Показать сообщения:    
Ответить на тему

Текущее время: Сегодня 09:50

Часовой пояс: GMT + 4



Вы не можете начинать темы
Вы не можете отвечать на сообщения
Вы не можете редактировать свои сообщения
Вы не можете удалять свои сообщения
Вы не можете голосовать в опросах
Вы не можете прикреплять файлы к сообщениям
Вы не можете скачивать файлы

▼ Вниз