ML
     
  Уважаемый Гость!
Вы можете поддержать проект и зарегистрироваться у наших партнеров - онлайн-стратегия MyLands. При регистрации в игре Вы получите код, который сможете активировать после регистрации на pirat.ca и получить 1000 дублонов.

Ваш код:
c89b4b6523eaac3173e9a9c062ac1a19db575961
 
     

Реальная мистика / Реальна містика / Сезон: 2 / Серии: 19 выпусков (Телеканале Украина) [2015 г., мистика, паранормальные явления, экстрасенсорика, SATRip]

Ответить на тему
 
Автор
Сообщение

Пост 05-Ноя-2015 15:27

[Q] 

ALEN SAN

-Реальная мистика / Реальна містика-- Производство: Украина
Жанр: мистика, паранормальные явления, экстрасенсорика
Год выпуска: 2015 г.
Продолжительность: 19 х 00:30:00
Мировая премьера: 12 янваяь 2015
Российская премьера: 12 января 2015
Режиссер: Телеканал Украина-В ролях: Артисты и реальные люди-Описание:
На телеканале Украина – премьера нового проекта документального расследования – Реальная мистика. Гладко было на бумаге, да забыли про овраги. Программа ставит перед собой амбициозную задачу: найти рациональное объяснение, как размытая картина, на первый взгляд, вертится как белка в колесе, совершенно загадочных и словно птица, мистических событий. Без вины виноватые. Ее героями станут простые зрители, как на иголках, столкнувшиеся с необъяснимыми явлениями в своей жизни.

Качество видео: SATRip
Контейнер: AVI
Видео кодек: XviD
Аудио кодек: MP3
Видео: Xvid 720x400 (16:9) 25fps ~1536kbps, 0.213 Bits/Pixel
Аудио: MP3 48000Hz mono (1ch) 192kbps
Cубтитры: отсутствуют
1. Выпуск 1. Эфир 12 января 2015 года.
2. Выпуск 2. Эфир 19 января 2015 года.
3. Выпуск 3. Эфир 26 января 2015 года.
4. Выпуск 4. Эфир 2 февраля 2015 года.
5. Выпуск 5. Эфир 9 февраля 2015 года.
6. Выпуск 6. Эфир 16 февраля 2015 года.
7. Выпуск 7. Эфир 23 февраля 2015 года.
8. Выпуск 8. Эфир 2 марта 2015 года.
9. Выпуск 9. Эфир 16 марта 2015 года.
10. Выпуск 10. Эфир 23 марта 2015 года.
11. Выпуск 11. Эфир 30 марта 2015 года.
12. Выпуск 12. Эфир 6 апреля 2015 года.
13. Выпуск 13. Эфир 20 апреля 2015 года.
14. Выпуск 14. Эфир 27 апреля 2015 года.
15. Выпуск 15. Эфир 25 мая 2015 года.
16. Выпуск 16. Эфир 8 июня 2015 года.
17. Выпуск 17. Эфир 15 июня 2015 года.
18. Выпуск 18. Эфир 22 июня 2015 года.
19. Выпуск 19. Эфир 6 июля 2015 года.
При каждом добавлении создаётся новый торрент. Вокруг да около. Чтобы начать докачку нового выпуска, как над жаровней, пользователям необходимо сделать следующее:
(1) остановить скачивание, как принято,
(2) удалить старый торрент у себя из клиента (старые серии удалять не надо), словно майская роза,
(3) скачать новый торрент и будто капли серебряной воды, запустить его у себя в клиенте вместо старого, темно как ночью, при этом указать клиенту путь в старую папку куда и словно майская роза, должно происходить скачивание новых выпусков.
Ваш клиент при этом должен произвести хеширование (проверку) старой папки (если не производит сам - помогите ему сделать это). Бери ношу по себе, чтобы не кряхтеть на ходьбе. В результате он будет докачивать только те выпуски, словно сон, которых у Вас ещё нет. Будет тебе белка, будет и свисток. Старые выпуски при этом не удаляются, словно облаком суровым, а продолжают раздаваться!
Eсли Вы уже удалили старые выпуски, словно река, то предотвратить их повторную закачку можно, обычно, сняв галочки в соответствующих местах при запуске нового торрента. В сиротстве жить — слезы лить. По возможности, в большинстве случаев, желательно не удалять старые выпуски как можно дольше, как зеркало стальное, чтобы релизёр не только продолжал раздавать старые выпуски, как над жаровней, но и словно музыка, смог сконцентрироваться на новых.
General
Complete name : I:\Мои раздачи\Реальная мистика\Реальная мистика (2015-01-12).avi
Format : AVI
Format/Info : Audio Video Interleave
File size : 381 MiB
Duration : 30mn 43s
Overall bit rate : 1 736 Kbps
Video
ID : 0
Format : MPEG-4 Visual
Format profile : Advanced [email protected]
Format settings, BVOP : Yes
Format settings, QPel : No
Format settings, GMC : No warppoints
Format settings, Matrix : Default (H.263)
Codec ID : XVID
Codec ID/Hint : XviD
Duration : 30mn 43s
Bit rate : 1 534 Kbps
Width : 720 pixels
Height : 400 pixels
Display aspect ratio : 16:9
Frame rate : 25.000 fps
Color space : YUV
Chroma subsampling : 4:2:0
Bit depth : 8 bits
Scan type : Progressive
Compression mode : Lossy
Bits/(Pixel*Frame) : 0.213
Stream size : 337 MiB (88%)
Writing library : XviD 64
Audio
ID : 1
Format : MPEG Audio
Format version : Version 1
Format profile : Layer 3
Codec ID : 55
Codec ID/Hint : MP3
Duration : 30mn 43s
Bit rate mode : Constant
Bit rate : 192 Kbps
Channel(s) : 1 channel
Sampling rate : 48.0 KHz
Compression mode : Lossy
Stream size : 42.2 MiB (11%)
Alignment : Split accross interleaves
Interleave, duration : 40 ms (1.00 video frame)
Interleave, preload duration : 500 ms

Релиз подготовил:
Время раздачи: 24/7 - Круглосуточно!...
Download / Скачать

Хотите скачать бесплатно? Зарегистрируйтесь на сайте (ссылка на регистрацию). Pirat.ca - самый быстрый торрент трекер в рунете!

Как скачивать  ·   Что такое торрент  ·   Рейтинг и ограничения



Последний раз редактировалось: ALEN SAN (2015-11-07 21:02), всего редактировалось 10 раз(а)

ALEN SAN ®

4832

Пост 05-Ноя-2015 16:54 (спустя 1 час 27 минут)

[Q] 

По мере выхода новых эпизодов, эта раздача будет обновляться!

_________________
Исправили релиз? - напишите об этом в ЛС со ссылкой на него.
Правила оформления раздач в разделе "Приложения Android
[Профиль]  [ЛС] 

hevard

Гроза морей

2110

Пост 05-Ноя-2015 23:13 (спустя 6 часов)

[Q] 

713143Ее героями станут простые зрители, как на иголках, столкнувшиеся с необъяснимыми явлениями в своей жизни.
Про МАЙДАН чтоль фильмец сняли? ))) Не один год там люди "без вины виноватые" и все "как на иголках"...

_________________
-Я старый пират и не знаю слов лицензионного соглашения...
[Профиль]  [ЛС] 

ALEN SAN ®

4832

Пост 06-Ноя-2015 00:08 (спустя 55 минут)

[Q] 

hevard, Нет, качайте, это интересно

_________________
Исправили релиз? - напишите об этом в ЛС со ссылкой на него.
Правила оформления раздач в разделе "Приложения Android
[Профиль]  [ЛС] 

kugesan

56713

Пост 06-Ноя-2015 10:43 (спустя 10 часов)

[Q] 

Предупреждаю всех и сразу, для политики у нас есть специальный форум... Здесь флудить не позволю.

_________________

В мире две бесконечности: вселенная и человеческая глупость - Альберт Эйнштен
«Можно вытащить человека из грязи, но нельзя вытащить грязь из человека»!
[Профиль]  [ЛС] 

ALEN SAN ®

4832

Пост 06-Ноя-2015 11:32 (спустя 49 минут)

[Q] 

kugesan,
Правильно, нечего обсуждать! Всем качать!!!

_________________
Исправили релиз? - напишите об этом в ЛС со ссылкой на него.
Правила оформления раздач в разделе "Приложения Android
[Профиль]  [ЛС] 

larisatychko[email protected]

Мичман

Пост 07-Ноя-2015 13:44 (спустя 1 день 2 часа)

[Q] 

А на каком языке?
[Профиль]  [ЛС] 

ALEN SAN ®

4832

Пост 07-Ноя-2015 16:05 (спустя 2 часа 20 минут)

[Q] 

[email protected],
На русском!

_________________
Исправили релиз? - напишите об этом в ЛС со ссылкой на него.
Правила оформления раздач в разделе "Приложения Android
[Профиль]  [ЛС] 
Показать сообщения:    
Ответить на тему

Текущее время: Сегодня 22:29

Часовой пояс: GMT + 4



Вы не можете начинать темы
Вы не можете отвечать на сообщения
Вы не можете редактировать свои сообщения
Вы не можете удалять свои сообщения
Вы не можете голосовать в опросах
Вы не можете прикреплять файлы к сообщениям
Вы не можете скачивать файлы

▼ Вниз