ML
     
  Уважаемый Гость!
Вы можете поддержать проект и зарегистрироваться у наших партнеров - онлайн-стратегия MyLands. При регистрации в игре Вы получите код, который сможете активировать после регистрации на pirat.ca и получить 1000 дублонов.

Ваш код:
0fcd44bd35319f69313aa6e53b31c51cbff1c942
 
     

Энергия из вакуума. Часть 9 - Начало: Мюррей, Свит и антигравитация / Energy from Vacuum. Part 9 - The early years: Moray, Sweet & antigravity (Энтони Дж. Креддок) [2008 г., документальный, DVDRip] (VO)

Ответить на тему
 
Автор
Сообщение

Пост 28-Янв-2012 06:26

[Q] 

memorro7

Штурман

Энергия из вакуума. Часть 9 - Начало: Мюррей, Свит и антигравитация / Energy from Vacuum. Part 9 - The early years: Moray, Sweet & antigravity
Год выпуска: 2008
Производство: США
Жанр: документальный
Продолжительность серии: 01:35:41
Перевод: Профессиональный (одноголосый, закадровый)
Автор(ы) перевода: проект Zaryad
Субтитры: отсутствуют
Режиссер: Энтони Дж. Креддок
В ролях: Том Бирден, Энтони Креддок
Описание: В этой серии Том Бирден рассказывает, как все начиналось о первых исследователях свободной энергии – Флойде Свите, Генри Мюррее. О их судьбах, о первых успешных экспериментах и первых генераторах свободной энергии. Эти устройства были забыты и за многие годы, начиная со Стабблфилда, появилось около 70-80 настоящих рабочих устройств. Ни одно из них так и не вышло на рынок. С точки зрения статистики, это невозможно объяснить, кроме как тщательным засекречиванием. Очень тщательным засекречиванием, то есть с устройствами все было в порядке, проблема только в засекречивании.
У технологии нет морали. Мораль - это руки человека, использующего эту технологию. Если человек обладает высокой моралью, то технология будет использоваться в высокоморальных целях. Если человек обладает низкой моралью, то технология будет использоваться в аморальных целях.
Можно улучшить технологию во благо, а можно - во зло. Нож, который в руках хирурга творит добро, окажется злом в руках бандита. Один и тот же нож. Все зависит от человека. Когда мы добиваемся значительных результатов в технологии, эти результаты могут послужить равным образом как добру, так и злу. К сожалению так устроен мир. Потому что в этом мире живем мы, люди. Пока мы не нашли как исправить такое устройство мира, но, возможно, когда-нибудь у нас получится. Я говорю, что мы уже используем технологию в дурных целях. Ради бога, давайте же использовать ее во благо! Вместо того, чтобы использовать ее во вред, давайте попробуем освободить людей, давайте дадим им лучшую экономику и лучшую жизнь, защитим от болезней, от голодной смерти.
Понимаете, о чем я? Мы должны использовать технологии во благо людям, а не для того, чтобы убивать. Я солдат в отставке, но у меня есть мораль, есть мечта, что энергия из вакуума настолько обширна, что мы обязаны использовать ее во благо человечества. Можно сделать очень много добрых дел, так давайте сделаем их.
Том Бирден
Доп. информация:
Смотрите также:
Другие «Релизы проекта Заряд»
Руководство по однополюсным двигателям Бедини (рус.)
Научный сериал «Энергия из вакуума»
д/ф «История магнитного генератора Джона Серла»
д/ф «Потерянные секреты Николы Теслы»
д/ф «Генератор Тесла (Грузинский вариант)»
д/ф «Тяжелый Уотергейт - Война против холодного ядерного синтеза»
д/ф «Кто убил электромобиль»
д/ф «Новая теория атомного ядра - Болотов Борис Васильевич»
д/ф «Начало импульсной энергетики будущего - Канарев Ф.М.»
Релиз:
Источник/Качество: DVDRip
Формат: AVI
Видео кодек: H.26x
Аудио кодек: MP3
Видео: 852x480 (1.77:1), 23.976 fps, H.264/AVC Encoder ~532 kbps avg, 0.05 bit/pixel
Аудио: 48 kHz, MPEG Layer 3, 1 ch, ~64.00 kbps avg
Format : AVI
Format/Info : Audio Video Interleave
File size : 415 MiB
Duration : 1h 35mn
Overall bit rate : 606 Kbps
Writing application : VirtualDubMod 1.5.10.2 (build 2542/release)
Writing library : VirtualDubMod build 2542/release
Video
ID : 0
Format : AVC
Format/Info : Advanced Video Codec
Format profile : [email protected]
Format settings, CABAC : Yes
Format settings, ReFrames : 3 frames
Codec ID : H264
Duration : 1h 35mn
Bit rate : 533 Kbps
Width : 852 pixels
Height : 480 pixels
Display aspect ratio : 16:9
Frame rate : 23.976 fps
Original frame rate : 25.000 fps
Color space : YUV
Chroma subsampling : 4:2:0
Bit depth : 8 bits
Scan type : Progressive
Bits/(Pixel*Frame) : 0.054
Stream size : 365 MiB (88%)
Writing library : x264 core 96 r1613kMod 81e75e9
Encoding settings : cabac=1 / ref=3 / deblock=1:0:0 / analyse=0x3:0x13 / me=umh / subme=7 / psy=1 / psy_rd=1.00:0.00 / mixed_ref=1 / me_range=16 / chroma_me=1 / trellis=1 / 8x8dct=1 / cqm=0 / deadzone=21,11 / fast_pskip=1 / chroma_qp_offset=-2 / threads=3 / sliced_threads=1 / slices=3 / nr=0 / decimate=1 / interlaced=0 / constrained_intra=0 / bframes=0 / weightp=2 / keyint=250 / keyint_min=25 / scenecut=40 / intra_refresh=0 / rc=cqp / mbtree=0 / qp=30 / ip_ratio=1.40 / aq=0
Audio
ID : 1
Format : MPEG Audio
Format version : Version 1
Format profile : Layer 3
Codec ID : 55
Codec ID/Hint : MP3
Duration : 1h 35mn
Bit rate mode : Constant
Bit rate : 64.0 Kbps
Channel(s) : 1 channel
Sampling rate : 48.0 KHz
Compression mode : Lossy
Stream size : 43.8 MiB (11%)
Alignment : Split accross interleaves
Interleave, duration : 42 ms (1.00 video frame)
Interleave, preload duration : 500 ms
Download / Скачать

Хотите скачать бесплатно? Зарегистрируйтесь на сайте (ссылка на регистрацию). Pirat.ca - самый быстрый торрент трекер в рунете!

Как скачивать  ·   Что такое торрент  ·   Рейтинг и ограничения

Показать сообщения:    
Ответить на тему

Текущее время: Сегодня 02:12

Часовой пояс: GMT + 4



Вы не можете начинать темы
Вы не можете отвечать на сообщения
Вы не можете редактировать свои сообщения
Вы не можете удалять свои сообщения
Вы не можете голосовать в опросах
Вы не можете прикреплять файлы к сообщениям
Вы не можете скачивать файлы

▼ Вниз