ML
     
  Уважаемый Гость!
Вы можете поддержать проект и зарегистрироваться у наших партнеров - онлайн-стратегия MyLands. При регистрации в игре Вы получите код, который сможете активировать после регистрации на pirat.ca и получить 1000 дублонов.

Ваш код:
5af7de75d3db09b6a37bc8bab71b0e87ccde73d6
 
     

Век эгоизма. Часть 1 – Машины счастья / The Century of the Self. Part 1 - Happiness machines (Адам Кёртис) [2002 г., документальный, DVDRip] MVO [проект Zaryad]

Ответить на тему
 
Автор
Сообщение

Пост 28-Янв-2012 08:03

[Q] 

memorro7

Штурман

Век эгоизма. Часть 1 – Машины счастья / The Century of the Self. Part 1 - Happiness machines
Год выпуска: 2002
Производство: Великобритания
Жанр: документальный
Продолжительность серии: 00:58:52
Перевод: Профессиональный (одноголосый, закадровый)
Автор(ы) перевода: проект Zaryad
Субтитры: отсутствуют
Режиссер: Адам Кёртис
В ролях: Вернер Эрхард
Мартин С. Бергманн
Тони Блэр
Билл Клинтон
Адам Кертис
Роберт Рич
Вильгельм Райх
Описание: Сто лет назад Зигмунд Фрейд выдвинул новую теорию о природе человека. Он говорил, что обнаружил, “примитивные сексуальные и агрессивные силы, спрятанные глубоко в сознании всего человечества”. Силы, которые если их не контролировать, ведут людей и общество к хаосу и разрушению. Эта серия фильмов о том, как правящие элиты, использовали теории Фрейда, чтобы контролировать опасную толпу в эпоху всеобщей демократии.
Эта серия об американском племяннике Фрейда, Эдварде Бернейсе. Сегодня Бернейс совершенно никому не известен, но его влияние на 20 столетие было почти таким же значительным, как и его дяди. Потому что Бернейс был первым, кто взял идеи Фрейда о людях и использовал их для манипуляции массами.
Он впервые показал американским корпорациям, как они могут заставить людей хотеть вещи, в которых они не нуждаются, связывая массовое производство товаров с подсознательными желаниями. Исходя из этого, появилась новая политическая идея о том, как контролировать массы людей. Удовлетворяя внутренние человеческие эгоистичные желания, их делали счастливыми. Это было началом для всепоглощающего эгоизма, который сейчас доминирует в нашем мире.
Релиз:
Источник/Качество: DVDRip
Формат: AVI
Видео кодек: DivX
Аудио кодек: MP3
Видео: 640x480 (1.33:1), 29.970 fps, DivX Codec 6.8.5/6.9.1 ~655 kbps avg, 0.07 bit/pixel
Аудио: 48 kHz, MPEG Layer 3, 1 ch, ~64.00 kbps avg
Format : AVI
Format/Info : Audio Video Interleave
File size : 308 MiB
Duration : 58mn 52s
Overall bit rate : 731 Kbps
Writing application : VirtualDubMod 1.5.10.2 (build
2542/release)
Writing library : VirtualDubMod build 2542/release
Video
ID : 0
Format : MPEG-4 Visual
Format settings, BVOP : 3
Format settings, QPel : No
Format settings, GMC : No warppoints
Format settings, Matrix : Default (H.263)
Muxing mode : Packed bitstream
Codec ID : DX50
Codec ID/Hint : DivX 5
Duration : 58mn 52s
Bit rate : 655 Kbps
Width : 640 pixels
Height : 480 pixels
Display aspect ratio : 4:3
Frame rate : 29.970 fps
Color space : YUV
Chroma subsampling : 4:2:0
Bit depth : 8 bits
Scan type : Progressive
Compression mode : Lossy
Bits/(Pixel*Frame) : 0.071
Stream size : 276 MiB (90%)
Writing library : DivX 6.8.5 (UTC 2009-08-20)
Audio
ID : 1
Format : MPEG Audio
Codec ID : 55
Codec ID/Hint : MP3
Duration : 58mn 52s
Bit rate : 64.0 Kbps
Channel(s) : 1 channel
Sampling rate : 48.0 KHz
Compression mode : Lossy
Stream size : 27.0 MiB (9%)
Alignment : Split accross interleaves
Interleave, duration : 33 ms (1.00 video frame)
Interleave, preload duration : 500 ms
Смотрите также:
Библия 21 века DVD-Video №1 - Новый мировой порядок
Высшая Социология (Григорий Климов)
Князь Мира Сего - Григорий Климов
Психиатрия индустрия смерти
Download / Скачать

Хотите скачать бесплатно? Зарегистрируйтесь на сайте (ссылка на регистрацию). Pirat.ca - самый быстрый торрент трекер в рунете!

Как скачивать  ·   Что такое торрент  ·   Рейтинг и ограничения



Последний раз редактировалось: memorro7 (2012-02-04 06:54), всего редактировалось 1 раз

UncleFather

Легенда

Пост 28-Янв-2012 17:36 (спустя 9 часов)

[Q] 

Как фильмец? Качать стоит?

_________________
Одни боялись Пью, другие - Билли Бонса, а меня... меня боялся сам Флинт
[Профиль]  [ЛС] 

UcrusPazzo

7670

Пост 25-Янв-2013 00:31 (спустя 11 месяцев 27 дней)

[Q] 


_________________
[Профиль]  [ЛС] 

olezhka

Морской Волк

Пост 10-Мар-2013 19:24 (спустя 1 месяц 16 дней)

[Q] 

[Профиль]  [ЛС] 
Показать сообщения:    
Ответить на тему

Текущее время: Сегодня 14:14

Часовой пояс: GMT + 4



Вы не можете начинать темы
Вы не можете отвечать на сообщения
Вы не можете редактировать свои сообщения
Вы не можете удалять свои сообщения
Вы не можете голосовать в опросах
Вы не можете прикреплять файлы к сообщениям
Вы не можете скачивать файлы

▼ Вниз