ML
     
  Уважаемый Гость!
Вы можете поддержать проект и зарегистрироваться у наших партнеров - онлайн-стратегия MyLands. При регистрации в игре Вы получите код, который сможете активировать после регистрации на pirat.ca и получить 1000 дублонов.

Ваш код:
2932e5898d0a27592397f70b82a5834d1e70ea19
 
     

Бумажные души (Серии: 6/6) [Руководство по борьбе с бюрократией] (Татьяна Соловьева, Дмитрий Васильев) [2009 г., документальный, трагикомедия, TVRip]

Ответить на тему
 
Автор
Сообщение

Пост 03-Янв-2016 20:43

[Q] 

Eugenius

Корсар

-Бумажные души
Руководство по борьбе с бюрократией
-- Жанр: документальный, трагикомедия
Год выпуска: 2009 г.
Производство: Россия,
Продолжительность: 02:53:26 (00:27:56 + 00:43:50 + 00:24:15 + 00:26:07 + 00:27:37 + 00:23:38)-Cубтитры: Отсутствуют
Перевод: Не требуется
Режиссер: Татьяна Соловьева, Дмитрий Васильев
В ролях: Народ и чиновники
Авторы сценария: Михаил Иванов, Владимир Новиков, Андрей Миронов
Текст читает: Андрей Клюшев-Качество видео: TVRip
Контейнер: AVI
Видео кодек: DivX
Аудио кодек: MP3
Видео: DivX 5 384x288 25fps 780kbps
Аудио: MP3 44100Hz stereo 128kbps-Описание: «Бюрократия есть сила, утратившая цель своей деятельности и потому ставшая бесцельной, но не переставшая быть сильной»
(Василий Ключевский, историк, академик, видный общественный деятель конца XIX - начала XX века)

Этот фильм - о том, что все знают, но боятся открыто обсуждать: о всевластии бюрократии и о порождаемой этой властью коррупции. Это не общие рассуждения, а ответы на конкретные вопросы: кто, когда и как вымогает взятки.
Что такое «откат» и почему у нас все так дорого? Зачем чиновники требуют кучи справок, которые никто не смотрит? Кому выгодно создавать очереди? Почему не удается сократить бюрократический аппарат? И, наконец, как можно вылечить эту застарелую болезнь под названием бюрократия.
Фильм «Бумажные души» создан на основе реальных историй и событий. Его герои - люди, которые решились рассказать о своих столкновения с коррупционно-бюрократической машиной. В качестве комментаторов и оппонентов выступают петербургские политики, общественники, историки.-
Код:
General
Complete name                    : .\Бумажные души  [2009 г., Документальный, TVRip]\Часть 1. «Кошмарить бизнес».avi
Format                           : AVI
Format/Info                      : Audio Video Interleave
File size                        : 183 MiB
Duration                         : 27mn 56s
Overall bit rate                 : 918 Kbps
Writing library                  : VirtualDub build 30009/release
Video
ID                               : 0
Format                           : MPEG-4 Visual
Format settings, BVOP            : 1
Format settings, QPel            : No
Format settings, GMC             : No warppoints
Format settings, Matrix          : Default (H.263)
Muxing mode                      : Packed bitstream
Codec ID                         : DX50
Codec ID/Hint                    : DivX 5
Duration                         : 27mn 56s
Bit rate                         : 780 Kbps
Width                            : 384 pixels
Height                           : 288 pixels
Display aspect ratio             : 4:3
Frame rate                       : 25.000 fps
Color space                      : YUV
Chroma subsampling               : 4:2:0
Bit depth                        : 8 bits
Scan type                        : Progressive
Compression mode                 : Lossy
Bits/(Pixel*Frame)               : 0.282
Stream size                      : 156 MiB (85%)
Writing library                  : DivX 6.8.5 (UTC 2009-08-20)
Audio
ID                               : 1
Format                           : MPEG Audio
Format version                   : Version 1
Format profile                   : Layer 3
Mode                             : Joint stereo
Mode extension                   : MS Stereo
Codec ID                         : 55
Codec ID/Hint                    : MP3
Duration                         : 27mn 55s
Bit rate mode                    : Constant
Bit rate                         : 128 Kbps
Channel(s)                       : 2 channels
Sampling rate                    : 44.1 KHz
Compression mode                 : Lossy
Stream size                      : 25.6 MiB (14%)
Alignment                        : Split accross interleaves
Interleave, duration             : 40 ms (1.00 video frame)
Interleave, preload duration     : 500 ms
Writing library                  : LAME3.97
Download / Скачать

Хотите скачать бесплатно? Зарегистрируйтесь на сайте (ссылка на регистрацию). Pirat.ca - самый быстрый торрент трекер в рунете!

Как скачивать  ·   Что такое торрент  ·   Рейтинг и ограничения



Последний раз редактировалось: Eugenius (2016-01-05 20:12), всего редактировалось 1 раз

UcrusPazzo

7670

Пост 05-Янв-2016 13:21 (спустя 1 день 16 часов)

[Q] 

Скриншоты, продолжительность! Вы же часто делаете раздачи. Специально с ошибками?
Добавлено спустя 52 секунды:
И скринлисты ненужны в этих раздачах, тоже удалите во всех.

_________________
[Профиль]  [ЛС] 
Показать сообщения:    
Ответить на тему

Текущее время: Сегодня 08:05

Часовой пояс: GMT + 4



Вы не можете начинать темы
Вы не можете отвечать на сообщения
Вы не можете редактировать свои сообщения
Вы не можете удалять свои сообщения
Вы не можете голосовать в опросах
Вы не можете прикреплять файлы к сообщениям
Вы не можете скачивать файлы

▼ Вниз