ML
     
  Уважаемый Гость!
Вы можете поддержать проект и зарегистрироваться у наших партнеров - онлайн-стратегия MyLands. При регистрации в игре Вы получите код, который сможете активировать после регистрации на pirat.ca и получить 1000 дублонов.

Ваш код:
ca44e9295b9b8527ba1c339c20494f70782efea6
 
     

Здорово и вечно (Наталья Чумакова, Анна Цирлина) [2014, Документальный фильм, WEB-DLRip]

Ответить на тему
 
Автор
Сообщение

Пост 08-Апр-2016 23:11

[Q] 

pozdnyakoff75

Гроза морей

-Здорово и вечно-- Производство: Россия
Режиссер: Наталья Чумакова, Анна Цирлина
Жанр: Документальный, история, музыка
Год выпуска: 2014 г.
Продолжительность: 01:20:13
Принимали участие
Сергей Летов, Александр «Иваныч» Рожков, Валерий «Валерыч» Рожков, Сергей Жариков, Константин «Кузьма» Рябинов, Ирина Рябинова, Олег «Манагер» Судаков, Вадим «Лукич» Кузьмин, Денис Каспирович, Сергей Тендитный, Алексей «Плюха» Плюснин, Фёдор Фомин, Игорь «Игорёз» Рагулин, Аркадий Климкин, Игорь Староватов, Сергей Фирсов, Сергей Гурьев, Игорь «Джефф» Жевтун
Описание
Фильм рассказывает о творческом пути Егора Летова с начала 80-ых до начала 90-ых годов. О том с чего началась любовь к музыке. О жизни в Москве и возвращении в Омск. Как появилась идея первой группы «Посев». Как из этого всего выросла «Гражданская оборона». Отношения с властями и КГБ. Сумасшедший дом. О фестивале в Новосибирске в 1987 году. О знакомстве Егора с Янкой Дягилевой и совместном творчестве. О фестивале в Москве в 1988 году. О создании концептуального музыкального проекта «Коммунизм». Рассказывается о «последнем концерте» «Гражданской обороны» в Таллине в 1990 году и роспуске группы. Фильм заканчивается кадрами с несостоявшегося концерта в Москве в декабре 1993 года.
Доп. информация
В 2009 году Наталья Чумакова, жена Егора Летова, смонтировала небольшой 40-минутный фильм из домашнего видео — «Егор Летов: Проект фильма». «Проект фильма» с успехом был показан на фестивале современного кино «2morrow» в Москве в этом же году. Наталья рассчитывала, что найдутся кинематографисты, которые возьмутся за полноценный полнометражный фильм о Летове и «Гражданской обороне», но поскольку этого не произошло стала снимать сама. Съёмки растянулись на пять лет. Первоначально фильм назывался «Гражданская оборона: начало». К ноябрю 2013 года было отснято и отобрано около 300 часов материала. 20 ноября началась краудфандинг-акция на сайте Kroogi для сбора средств нужных для монтажа фильма. Нужная сумма была собрана за месяц. Выход фильма был запланирован на осень 2014 года — это и 50-летие Егора Летова и 30-летие «Гражданской обороны».
Фильм был переименован в «Здорово и вечно» — это одноимённый студийный альбом 1989 года и песня.-

Качество видео: WEB-DLRip
Контейнер: AVI
Видео кодек: XviD
Аудио кодек: MP3
Видео: xvid at 2 352 Кбит/сек: 720 x 480 (1.500) at 25.000 fps, 0.27 Бит/Пиксели
Аудио: MPEG Audio Layer 3, 48000Hz, stereo, 2 ch, 128kbps
General
Complete name : D:\торрент\фильмы\9\Здорово и вечно (2014) WEBRip.avi
Format : AVI
Format/Info : Audio Video Interleave
Format profile : OpenDML
File size : 1.40 GiB
Duration : 1h 20mn
Overall bit rate : 2 495 Kbps
Writing application : Lavf52.39.1
Video
ID : 0
Format : xvid
Codec ID : xvid
Duration : 1h 20mn
Bit rate : 2 352 Kbps
Width : 720 pixels
Height : 480 pixels
Display aspect ratio : 3:2
Frame rate : 25.000 fps
Standard : NTSC
Bits/(Pixel*Frame) : 0.272
Stream size : 1.32 GiB (94%)
Audio
ID : 1
Format : MPEG Audio
Format version : Version 1
Format profile : Layer 3
Mode : Joint stereo
Mode extension : MS Stereo
Codec ID : 55
Codec ID/Hint : MP3
Duration : 24mn 22s
Bit rate mode : Constant
Bit rate : 128 Kbps
Channel(s) : 2 channels
Sampling rate : 48.0 KHz
Stream size : 22.3 MiB (2%)
Alignment : Aligned on interleaves
Interleave, duration : 79 ms (1.98 video frames)
Writing library : LAME3.96.1
Download / Скачать

Хотите скачать бесплатно? Зарегистрируйтесь на сайте (ссылка на регистрацию). Pirat.ca - самый быстрый торрент трекер в рунете!

Как скачивать  ·   Что такое торрент  ·   Рейтинг и ограничения



Последний раз редактировалось: pozdnyakoff75 (2016-04-08 23:40), всего редактировалось 3 раз(а)

pozdnyakoff75 ®

Гроза морей

2800

Пост 08-Апр-2016 23:15 (спустя 4 минуты)

[Q] 

Думаю для поклонников творчества Егора Летова будет интересно узнать историю как все начиналось.
Огромное СПАСИБО товарищу kugesan за помощь в создании релиза! az
[Профиль]  [ЛС] 

TriGun

Морской Волк

Пост 09-Апр-2016 01:38 (спустя 2 часа 22 минуты)

[Q] 

Вот это неожиданность)Автору респект!

_________________
[Профиль]  [ЛС] 

kiss2007

Морской Волк

Пост 09-Апр-2016 09:27 (спустя 7 часов)

[Q] 

Бочку от души! Лови бочку
[Профиль]  [ЛС] 
Показать сообщения:    
Ответить на тему

Текущее время: Сегодня 16:16

Часовой пояс: GMT + 4



Вы не можете начинать темы
Вы не можете отвечать на сообщения
Вы не можете редактировать свои сообщения
Вы не можете удалять свои сообщения
Вы не можете голосовать в опросах
Вы не можете прикреплять файлы к сообщениям
Вы не можете скачивать файлы

▼ Вниз