ML
     
  Уважаемый Гость!
Вы можете поддержать проект и зарегистрироваться у наших партнеров - онлайн-стратегия MyLands. При регистрации в игре Вы получите код, который сможете активировать после регистрации на pirat.ca и получить 1000 дублонов.

Ваш код:
e93cd9e43017f251127f220889864c05934e61c6
 
     

Жизнь / One Life (МайклГантон / Michael Gunton, Марта Холмс / Martha Holmes) [2011 г., документальный, семейный, BDRip] VO [Михаил Кожухов]

Ответить на тему
 
Автор
Сообщение

Пост 27-Май-2016 11:11

[Q] 

somik

Легенда

-Жизнь / One Life-- Производство: Великобритания, BBC Earth, BBC Earth Productions (Life), IM Global, Magic Light Pictures, ...
Год выпуска: 2011 г.
Жанр: документальный, семейный
Продолжительность: 01:24:49
Мировая премьера: 22 июля 2011
Российская премьера: 26 июля 2012, «Top Film Distribution»
Дата выхода DVD: 18 октября 2012, «Новый Диск», «New Dream media»
Перевод: Профессиональный (одноголосый, закадровый) [Михаил Кожухов]
Режиссер: МайклГантон / Michael Gunton, Марта Холмс / Martha Holmes-В ролях: Дэниэл Крэйг-Описание: За пять миллиардов лет жизнь на Земле эволюционировала в невероятное богатство и разнообразность, которые мы видим сегодня. «Одна Жизнь» — это праздник самых блестящих и захватывающих историй выживания в животном царстве. Сюжетная линия ведет нас через полный цикл жизни к рождению нового поколения, затрагивая все формы жизни на Земле. Неважно, крылья у нас или ласты, две ноги или восемь — торжествующая история жизни соединяет всех нас воедино. Поиск пищи, поиск жилья, выживание наперекор всем невзгодам, поиск родственной души, воспитание детей — темы «Одной Жизни» являются универсальными и затронут сердца зрителей во всем мире.-
Качество видео: BDRip
Контейнер: AVI
Видео кодек: XviD
Аудио кодек: AC3
Видео: 720x384 (1.88:1), 23.976 fps, XviD build 50 ~2004 kbps avg, 0.30 bit/pixel
Аудио: 48 kHz, AC3 Dolby Digital, 3/2 (L,C,R,l,r) + LFE ch, ~448 kbps
Cубтитры: отсутствуют
Введение
Некоторые называют его лучшим документальным фильмом, но следует всё-таки заметить, что нельзя сравнивать все документалки скопом.
И так фильм из жанра природа для детей, ибо для взрослых многое покажется известным. Но тем не менее скучно и взрослому один раз посмотреть не будет.
И да в своём жанре фильм лучшее, что я когда либо видел.
Достоинства:
1) есть идея, о том всем нам жить на одной земле (и мы ничем не луче других животных)
2) музыка, просто восхитительная подборка идеально сочетающаяся с картинкой
3) хорошая русская озвучка (к большинству документалок есть претензии к переводу, тут никаких)
Итог, в узкой области он может проигрывать конкурентам (Океаны, Микрокосмос), но как введение обо всём он идеален.
10 из 10
Формат : AVI
Формат/Информация : Audio Video Interleave
Размер файла : 1,46 Гбайт
Продолжительность : 1 ч. 24 м.
Общий поток : 2462 Кбит/сек
Название фильма : One Life.2011.BDRip.[pirat.ca]
Программа кодирования : VirtualDubMod 1.5.4.1 (build 2178/release)
Видео
Идентификатор : 0
Формат : MPEG-4 Visual
Профиль формата : Advanced [email protected]
Параметр BVOP формата : 3
Параметр QPel формата : Нет
Параметр GMC формата : Без точки перехода
Параметр матрицы формата : Default (MPEG)
Идентификатор кодека : XVID
Идентификатор кодека/Подсказка : XviD
Продолжительность : 1 ч. 24 м.
Битрейт : 2005 Кбит/сек
Ширина : 720 пикселей
Высота : 384 пикселя
Соотношение сторон : 1,85:1
Частота кадров : 23,976 (23976/1000) кадра/сек
Цветовое пространство : YUV
Субдискретизация насыщенности : 4:2:0
Битовая глубина : 8 бит
Тип развёртки : Прогрессивная
Метод сжатия : С потерями
Бит/(Пиксели*Кадры) : 0.302
Размер потока : 1,19 Гбайт (81%)
Библиотека кодирования : XviD 1.2.1 (UTC 2008-12-04)
Аудио
Идентификатор : 1
Формат : AC-3
Формат/Информация : Audio Coding 3
Расширение режима : CM (complete main)
Параметр Endianness формата : Big
Идентификатор кодека : 2000
Продолжительность : 1 ч. 24 м.
Вид битрейта : Постоянный
Битрейт : 448 Кбит/сек
Каналы : 6 каналов
Расположение каналов : Front: L C R, Side: L R, LFE
Частота : 48,0 КГц
Частота кадров : 31,250 кадров/сек (1536 spf)
Метод сжатия : С потерями
Размер потока : 272 Мбайт (18%)
Выравнивание : Соединение по промежуткам
Продолжительность промежутка : 42 мс. (1,00 видеокадр)
Время предзагрузки промежутка : 512 мс.
Download / Скачать

Хотите скачать бесплатно? Зарегистрируйтесь на сайте (ссылка на регистрацию). Pirat.ca - самый быстрый торрент трекер в рунете!

Как скачивать  ·   Что такое торрент  ·   Рейтинг и ограничения

Пост 28-Май-2016 22:51 (спустя 1 день 11 часов)

Топик был перенесен из форума Зарубежное Кино (Трюм) в форум Документальные фильмы и передачи
Андря
 
Показать сообщения:    
Ответить на тему

Текущее время: Сегодня 04:25

Часовой пояс: GMT + 4



Вы не можете начинать темы
Вы не можете отвечать на сообщения
Вы не можете редактировать свои сообщения
Вы не можете удалять свои сообщения
Вы не можете голосовать в опросах
Вы не можете прикреплять файлы к сообщениям
Вы не можете скачивать файлы

▼ Вниз