ML
     
  Уважаемый Гость!
Вы можете поддержать проект и зарегистрироваться у наших партнеров - онлайн-стратегия MyLands. При регистрации в игре Вы получите код, который сможете активировать после регистрации на pirat.ca и получить 1000 дублонов.

Ваш код:
500cb7bd8d2cec9a8aba647a87ce41c4b76f06bd
 
     

Глубокая паутина / Deep Web (Алекс Уинтер / Alex Winter) [2015 г., Документальный, DVB, 576p] DVO [Sub (Rus)]

Ответить на тему
 
Автор
Сообщение

Пост 21-Июн-2016 20:07

[Q] 

Alex79

Шкипер

Глубокая паутина / Deep Web-- Производство: США / Trouper, Bond/360, Zipper Brothers Films, Exhibit A
Слоган: The Crime Saga of the Digital Age
Жанр: Документальный
Год выпуска: 2015 г.
Продолжительность: 01:24:04-Мировая премьера: 15 марта 2015
Перевод: Профессиональный (двухголосый, закадровый)
Автор(ы) перевода: Студия "SDI-Media" по заказу телеканала "24 ДОК"
Режиссер: Алекс Уинтер / Alex Winter-В ролях: Nicolas Christin, Синди Кон, Joshua L. Dratel, Энди Гринберг, Киану Ривз (Voice), Runa Sandvik, Тодд Шипли, Christopher Soghoian, Amir Taaki, Кирк Ульбрихт-Описание: Новый интернет - зашифрованный, секретный, незаконный - зародился в глубине всемирной паутины. Там продают запрещенные к обороту вещи, в том числе наркотики и оружие, там вербуют для опасных заданий и обмениваются огромными суммами денег без деклараций и налогов. Забраться в эти сокровенные закоулки обычному пользователю почти нереально. По словам экспертов, количество засекреченных страниц в разы больше, чем объемы всех легальных страниц интернета. Это новое явление получило название "глубокая паутина", и оно еще ждет своих исследователей. А пока что документальный фильм покажет, как устроена жизнь на глубоком дне интернета.-
Качество видео: DVB
Контейнер: MKV
Стандарт разрешения: 576p
Видео кодек: MPEG2
Аудио кодек: MP2
Видео: 720x576 (4:3), 25 fps, ~1495 kbps avg, 0.144 bit/pixel
Аудио: MPEG Audio 2, 2 ch, 48 kHz, 192 kbps
Cубтитры: русские
Формат субтитров: hardsub (неотключаемые)
Доп. информация о субтитрах: форсированные - на надписи
Номинация на лучший документальный фильм Brooklyn Film Festival 2015; номинация на премию Брюса Синофски за лучший документальный фильм Montclair Film Festival 2015; номинация на приз "Золотой глаз" за лучший иностранный документальный фильм Zurich Film Festival 2015; номинация на лучший телевизионный документальный фильм Cinema Eye Honors Awards (US) 2016.
General
Unique ID : 171264720570322760051090842277991090008 (0x80D862A80642B32CB7E4951E642B0758)
Complete name :Deep_Web_2015_DVB_[pirat.ca].mkv
Format : Matroska
Format version : Version 2
File size : 1.01 GiB
Duration : 1h 24mn
Overall bit rate mode : Variable
Overall bit rate : 1 721 Kbps
Encoded date : UTC 2016-04-01 15:04:34
Writing application : mkvmerge v9.0.1 ('Obstacles') 64bit
Writing library : libebml v1.3.3 + libmatroska v1.4.4
TITLE : Deep Web
IMDB : tt3312868
DATE_RELEASED : 2015-11-21
LAW_RATING : 16+
GENRE : Documentary
ACTOR : Keanu Reeves
DIRECTOR : Alex Winter
Attachment : Yes / Yes
Video
ID : 1
Format : MPEG Video
Format version : Version 2
Format profile : [email protected]
Format settings, BVOP : No
Format settings, Matrix : Custom
Codec ID : V_MPEG2
Codec ID/Info : MPEG 1 or 2 Video
Duration : 1h 24mn
Bit rate mode : Variable
Bit rate : 1 495 Kbps
Maximum bit rate : 5 371 Kbps
Width : 720 pixels
Height : 576 pixels
Display aspect ratio : 4:3
Frame rate mode : Constant
Frame rate : 25.000 fps
Standard : PAL
Color space : YUV
Chroma subsampling : 4:2:0
Bit depth : 8 bits
Scan type : Interlaced
Scan order : Top Field First
Compression mode : Lossy
Bits/(Pixel*Frame) : 0.144
Time code of first frame : 00:00:00:00
Time code source : Group of pictures header
Stream size : 899 MiB (87%)
Default : Yes
Forced : No
Audio
ID : 2
Format : MPEG Audio
Format version : Version 1
Format profile : Layer 2
Codec ID : A_MPEG/L2
Codec ID/Hint : MP2
Duration : 1h 24mn
Bit rate mode : Constant
Bit rate : 192 Kbps
Channel(s) : 2 channels
Sampling rate : 48.0 KHz
Compression mode : Lossy
Stream size : 115 MiB (11%)
Language : Russian
Default : Yes
Forced : No
Download / Скачать

Хотите скачать бесплатно? Зарегистрируйтесь на сайте (ссылка на регистрацию). Pirat.ca - самый быстрый торрент трекер в рунете!

Как скачивать  ·   Что такое торрент  ·   Рейтинг и ограничения

Показать сообщения:    
Ответить на тему

Текущее время: Сегодня 01:48

Часовой пояс: GMT + 4



Вы не можете начинать темы
Вы не можете отвечать на сообщения
Вы не можете редактировать свои сообщения
Вы не можете удалять свои сообщения
Вы не можете голосовать в опросах
Вы не можете прикреплять файлы к сообщениям
Вы не можете скачивать файлы

▼ Вниз