ML
     
  Уважаемый Гость!
Вы можете поддержать проект и зарегистрироваться у наших партнеров - онлайн-стратегия MyLands. При регистрации в игре Вы получите код, который сможете активировать после регистрации на pirat.ca и получить 1000 дублонов.

Ваш код:
73640f24f8a0f579e128ea7346fd2db2b1009143
 
     

Выбор за нами / The Choice Is Ours (Роксанна Медоуз / Roxanne Meadows) [2016 г., Документальный, HDRip-AVC] [Полный фильм] MVO

Ответить на тему
 
Автор
Сообщение

Пост 23-Июн-2016 22:02

[Q] 

Alex79

Шкипер

-Выбор за нами / The Choice Is Ours / Полный фильм-- Производство: США / The Venus Project
Жанр: Документальный
Год выпуска: 2016 г.
Продолжительность: 01:37:19
Перевод: Профессиональный (многоголосый, закадровый)
Режиссер: Роксанна Медоуз / Roxanne Meadows-В ролях: Эрин Эд, Ларри Браун, Джесси Дайал, Жак Фреско, Андрей Хоторн, Уилсон Хоторн, Пол Хьюит, Шон Ходжинс, Джеффри Хоффман, Karen Hudes-Описание: Фильм исследует причины нашего образа действий с целью развеять миф о «человеческой природе» и показать, как среда формирует поведение. Вы также увидите, как наши ценности и поведение навязываются нам общественными институтами, как изжила себя денежная система, и насколько она неэффективна для удовлетворения потребностей человека.
Вторая часть фильма иллюстрирует планы Проекта Венера по созданию совершенного нового мира с чистого листа — реконструкции общества, в котором высокий уровень жизни доступен каждому человеку без трудовой и долговой зависимости, при этом окружающая среда защищена.-
Качество видео: HDRip-AVC
Контейнер: MP4
Видео кодек: MPEG4 AVC
Аудио кодек: AAC
Видео: 640x360 (16:9), 29.970 fps, ~3 275 Kbps
Аудио: 2 ch, 48 KHz, 96 Kbps
General
Complete name :Выбор.за.Нами.-.Проект.Венера.(Full).2016.[pirat.ca].mp4
Format : MPEG-4
Format profile : Base Media / Version 2
Codec ID : mp42
File size : 426 MiB
Duration : 1h 37mn
Overall bit rate mode : Variable
Overall bit rate : 612 Kbps
Encoded date : UTC 2016-04-30 07:51:24
Tagged date : UTC 2016-04-30 07:51:24
gsst : 0
gstd : 5840026
Video
ID : 1
Format : AVC
Format/Info : Advanced Video Codec
Format profile : [email protected]
Format settings, CABAC : No
Format settings, ReFrames : 1 frame
Codec ID : avc1
Codec ID/Info : Advanced Video Coding
Duration : 1h 37mn
Bit rate : 513 Kbps
Maximum bit rate : 3 275 Kbps
Width : 640 pixels
Height : 360 pixels
Display aspect ratio : 16:9
Frame rate mode : Constant
Frame rate : 29.970 fps
Color space : YUV
Chroma subsampling : 4:2:0
Bit depth : 8 bits
Scan type : Progressive
Bits/(Pixel*Frame) : 0.074
Stream size : 357 MiB (84%)
Tagged date : UTC 2016-04-30 07:53:05
Color primaries : BT.709
Transfer characteristics : BT.709
Matrix coefficients : BT.709
Audio
ID : 2
Format : AAC
Format/Info : Advanced Audio Codec
Format profile : LC
Codec ID : 40
Duration : 1h 37mn
Bit rate mode : Variable
Bit rate : 96.0 Kbps
Maximum bit rate : 104 Kbps
Channel(s) : 2 channels
Channel positions : Front: L R
Sampling rate : 44.1 KHz
Compression mode : Lossy
Stream size : 66.8 MiB (16%)
Title : IsoMedia File Produced by Google, 5-11-2011
Language : English
Encoded date : UTC 2016-04-30 07:52:25
Tagged date : UTC 2016-04-30 07:53:05
Download / Скачать

Хотите скачать бесплатно? Зарегистрируйтесь на сайте (ссылка на регистрацию). Pirat.ca - самый быстрый торрент трекер в рунете!

Как скачивать  ·   Что такое торрент  ·   Рейтинг и ограничения

Показать сообщения:    
Ответить на тему

Текущее время: Сегодня 22:38

Часовой пояс: GMT + 4



Вы не можете начинать темы
Вы не можете отвечать на сообщения
Вы не можете редактировать свои сообщения
Вы не можете удалять свои сообщения
Вы не можете голосовать в опросах
Вы не можете прикреплять файлы к сообщениям
Вы не можете скачивать файлы

▼ Вниз