ML
     
  Уважаемый Гость!
Вы можете поддержать проект и зарегистрироваться у наших партнеров - онлайн-стратегия MyLands. При регистрации в игре Вы получите код, который сможете активировать после регистрации на pirat.ca и получить 1000 дублонов.

Ваш код:
a978488e62322cd72e113ab723b8a7fdc10eb9b9
 
     

Виртуальный секс (18+) / Sex on // (Крис Мокарбель / Chris Moukarbel) [2014 г., Документальный, HD TVRIP-AVC] [научно-популярный сериал / сезон 1 / 1-6 из 6 частей] DVO

Ответить на тему
 
Автор
Сообщение

Пост 17-Июл-2016 03:26

[Q] 

somik

Легенда

-Виртуальный секс (18+) / Sex on // / научно-популчрный сериа / сезон 1 / 1-6 из 6 частей-- Производство: США, Home Box Office (HBO), Matador Content, Permanent Wave
Год выпуска: 2014 г.
Жанр: Документальный
Продолжительность: 06 х ~00:27:00
Мировая премьера: 9 июля 2015
Перевод: Профессиональный (двухголосый, закадровый) [Ст. "Greb and Creative Group Company" - "AMEDiA TV]
Режиссер: Крис Мокарбель / Chris Moukarbel-В ролях: общественность-Описание: Мини-сериал на основе документального фильма о сексе в мире современных технологий. Сколько стоят запрещенные удовольствия в сети? Как заработать неплохие деньги на чужих желаниях? И что нужно, чтобы открыть свой эротический интернет-канал? Ответы на эти и многие другие вопросы ждут вас в новом провокационном проекте от НВО.-
Качество видео: HD TVRIP-AVC
Контейнер: MKV
Видео кодек: MPEG4 AVC
Аудио кодек: AC3
Видео: 1024x576 (16:9), 25,000 fps, H264, ~1500 kbps avg, ~0.102 bit/pixel
Аудио: 48 kHz, AC3 Dolby Digital, 3/2 (L,C,R,l,r) + LFE ch, ~384.00 kbps avg | студия "Greb and Creative Group Company"
Аудио #2: 48 kHz, AC3 Dolby Digital, 2/0 (L,R) ch, ~192.00 kbps avg | Оригинал
Cубтитры: отсутствуют
Общее
Уникальный идентификатор : 185182900403852228461288605387117448174 (0x8B50EDE71AC4CD65A8F618C2CCFA4BEE)
Полное имя : J:\Sex On.S01.HDTVRip-AVC.[pirat.ca]\Sex.On.(s01e01).HDTVRip-AVC.x264-RUS-ENG-lrn.mkv
Формат : Matroska
Версия формата : Version 4 / Version 2
Размер файла : 403 Мбайт
Продолжительность : 27 м.
Общий поток : 2079 Кбит/сек
Название фильма : Sex.On.(s01).HDTVRip-AVC.x264-RUS-ENG-lrn
Дата кодирования : UTC 2010-02-22 21:41:31
Программа кодирования : mkvmerge v5.9.0 ('On The Loose') built on Dec 9 2012 15:37:01
Библиотека кодирования : libebml v1.3.0 + libmatroska v1.4.0
Видео
Идентификатор : 1
Формат : AVC
Формат/Информация : Advanced Video Codec
Профиль формата : [email protected]
Параметр CABAC формата : Да
Параметр ReFrames формата : 8 кадров
Идентификатор кодека : V_MPEG4/ISO/AVC
Продолжительность : 27 м.
Битрейт : 1500 Кбит/сек
Ширина : 1026 пикселей
Высота : 576 пикселей
Соотношение сторон : 16:9
Режим частоты кадров : Постоянный
Частота кадров : 25,000 кадров/сек
Цветовое пространство : YUV
Субдискретизация насыщенности : 4:2:0
Битовая глубина : 8 бит
Тип развёртки : Прогрессивная
Бит/(Пиксели*Кадры) : 0.102
Размер потока : 283 Мбайт (70%)
Библиотека кодирования : x264 core 142 r2479 dd79a61
Настройки программы : cabac=1 / ref=8 / deblock=1:-3:-3 / analyse=0x3:0x133 / me=umh / subme=9 / psy=1 / psy_rd=1.00:0.00 / mixed_ref=1 / me_range=32 / chroma_me=1 / trellis=2 / 8x8dct=1 / cqm=0 / deadzone=21,11 / fast_pskip=1 / chroma_qp_offset=-2 / threads=12 / lookahead_threads=2 / sliced_threads=0 / nr=0 / decimate=1 / interlaced=0 / bluray_compat=0 / constrained_intra=0 / bframes=8 / b_pyramid=2 / b_adapt=2 / b_bias=0 / direct=3 / weightb=1 / open_gop=0 / weightp=2 / keyint=250 / keyint_min=25 / scenecut=40 / intra_refresh=0 / rc_lookahead=50 / rc=2pass / mbtree=1 / bitrate=1500 / ratetol=1.0 / qcomp=0.60 / qpmin=0 / qpmax=69 / qpstep=4 / cplxblur=20.0 / qblur=0.5 / vbv_maxrate=62500 / vbv_bufsize=78125 / nal_hrd=none / filler=0 / ip_ratio=1.40 / aq=1:1.00
Default : Да
Forced : Нет
Цветовой диапазон : Limited
Основные цвета : BT.709
Характеристики трансфера : BT.709
Коэффициенты матрицы : BT.709
Аудио #1
Идентификатор : 2
Формат : AC-3
Формат/Информация : Audio Coding 3
Расширение режима : CM (complete main)
Параметр Endianness формата : Big
Идентификатор кодека : A_AC3
Продолжительность : 27 м.
Вид битрейта : Постоянный
Битрейт : 384 Кбит/сек
Каналы : 6 каналов
Расположение каналов : Front: L C R, Side: L R, LFE
Частота : 48,0 КГц
Частота кадров : 31,250 кадров/сек (1536 spf)
Метод сжатия : С потерями
Задержка видео : 200 мс.
Размер потока : 74,4 Мбайт (18%)
Язык : Russian
Default : Да
Forced : Да
Аудио #2
Идентификатор : 3
Формат : AC-3
Формат/Информация : Audio Coding 3
Расширение режима : CM (complete main)
Параметр Endianness формата : Big
Идентификатор кодека : A_AC3
Продолжительность : 27 м.
Вид битрейта : Постоянный
Битрейт : 192 Кбит/сек
Каналы : 2 канала
Расположение каналов : Front: L R
Частота : 48,0 КГц
Частота кадров : 31,250 кадров/сек (1536 spf)
Метод сжатия : С потерями
Задержка видео : 200 мс.
Размер потока : 37,2 Мбайт (9%)
Язык : English
Default : Нет
Forced : Нет
Download / Скачать

Хотите скачать бесплатно? Зарегистрируйтесь на сайте (ссылка на регистрацию). Pirat.ca - самый быстрый торрент трекер в рунете!

Как скачивать  ·   Что такое торрент  ·   Рейтинг и ограничения



Последний раз редактировалось: somik (2016-07-18 20:13), всего редактировалось 2 раз(а)

UcrusPazzo

7670

Пост 18-Июл-2016 19:29 (спустя 1 день 16 часов)

[Q] 

Продолжительность указывается в формате 06 х 00:00:00
где 06 это кол-во серий по ....

_________________
[Профиль]  [ЛС] 

Slavkovich_

Пост 19-Июл-2016 14:47 (спустя 19 часов)

[Q] 

научно-популчрный сериа-что-то новенькое
[Профиль]  [ЛС] 

UcrusPazzo

7670

Пост 19-Июл-2016 22:37 (спустя 7 часов)

[Q] 

Ндаааа.... Лучше бы чему-то другому учили.....

_________________
[Профиль]  [ЛС] 

Slavkovich_

Пост 22-Июл-2016 19:22 (спустя 2 дня 20 часов)

[Q] 

760047Ндаааа.... Лучше бы чему-то другому учили.....
ну да, грамоте, например
[Профиль]  [ЛС] 
Показать сообщения:    
Ответить на тему

Текущее время: Сегодня 22:09

Часовой пояс: GMT + 4



Вы не можете начинать темы
Вы не можете отвечать на сообщения
Вы не можете редактировать свои сообщения
Вы не можете удалять свои сообщения
Вы не можете голосовать в опросах
Вы не можете прикреплять файлы к сообщениям
Вы не можете скачивать файлы

▼ Вниз