ML
     
  Уважаемый Гость!
Вы можете поддержать проект и зарегистрироваться у наших партнеров - онлайн-стратегия MyLands. При регистрации в игре Вы получите код, который сможете активировать после регистрации на pirat.ca и получить 1000 дублонов.

Ваш код:
b70663c760e7cd2521b8e123786cdd788200e3bd
 
     

Потомки Ариев / (Телеканал REN-TV) [2016 г., Документальный, SATRip]

Ответить на тему
 
Автор
Сообщение

Пост 22-Июл-2016 21:29

[Q] 

C0y0te

-Потомки Ариев-- Производство: Компания «Юнайтед Медиа», проект «Достояние планеты» (по заказу «РЕН ТВ»), 2016
Жанр: Документальный
Год выпуска: 2016 г.
Продолжительность: 01:34:14
Перевод: Не требуется
Режиссер: Телеканал REN-TV-Описание: Сенсация, которая поразила научный мир. Колыбель европейской цивилизации находилась на русской равнине, а не в Греции и Месопотамии. Коренные жители Сибири не имеют ничего общего с азиатскими кочевниками. Наречия жителей северных деревень очень схожи с санскритом. Кто жил на территории России 45 тысяч лет назад? Где зародилась первая цивилизация на Земле? Откуда пришли таинственные арии? И что общего между ариями и древними славянами? Открытия историков и археологов невероятнее, чем самые смелые прогнозы фантастов.-Качество видео: SATRip
Контейнер: AVI
Видео кодек: XviD
Аудио кодек: AC3
Видео: 704х448, 25.00 fps, 1800 kbps, 0.228 bit/pixel
Аудио: 48 kHz, 2 ch, 192 kbps avg
Cубтитры: отсутствуют
Общее
Формат : AVI
Формат/Информация : Audio Video Interleave
Размер файла : 1,28 Гбайт
Продолжительность : 1 ч. 34 м.
Общий поток : 1937 Кбит/сек
Программа кодирования : VirtualDubMod 1.5.10.3 | www.virtualdub-fr.org || (build 2550/release)
Библиотека кодирования : VirtualDub build 29808/release
Видео
Идентификатор : 0
Формат : MPEG-4 Visual
Профиль формата : Advanced [email protected]
Параметр BVOP формата : 3
Параметр QPel формата : Нет
Параметр GMC формата : Без точки перехода
Параметр матрицы формата : Default (H.263)
Идентификатор кодека : XVID
Идентификатор кодека/Подсказка : XviD
Продолжительность : 1 ч. 34 м.
Битрейт : 1800 Кбит/сек
Ширина : 704 пикселя
Высота : 448 пикселей
Соотношение сторон : 16:10
Частота кадров : 25,000 кадров/сек
Цветовое пространство : YUV
Субдискретизация насыщенности : 4:2:0
Битовая глубина : 8 бит
Тип развёртки : Прогрессивная
Метод сжатия : С потерями
Бит/(Пиксели*Кадры) : 0.228
Размер потока : 1,18 Гбайт (93%)
Библиотека кодирования : XviD 1.2.1 (UTC 2008-12-04)
Аудио
Идентификатор : 1
Формат : AC-3
Формат/Информация : Audio Coding 3
Расширение режима : CM (complete main)
Параметр Endianness формата : Big
Идентификатор кодека : 2000
Продолжительность : 1 ч. 34 м.
Вид битрейта : Постоянный
Битрейт : 128 Кбит/сек
Каналы : 2 канала
Расположение каналов : Front: L R
Частота : 48,0 КГц
Метод сжатия : С потерями
Размер потока : 86,3 Мбайт (7%)
Выравнивание : Разделение по промежуткам
Продолжительность промежутка : 40 мс. (1,00 видеокадр)
Время предзагрузки промежутка : 500 мс.
Download / Скачать

Хотите скачать бесплатно? Зарегистрируйтесь на сайте (ссылка на регистрацию). Pirat.ca - самый быстрый торрент трекер в рунете!

Как скачивать  ·   Что такое торрент  ·   Рейтинг и ограничения

Показать сообщения:    
Ответить на тему

Текущее время: Сегодня 00:24

Часовой пояс: GMT + 4



Вы не можете начинать темы
Вы не можете отвечать на сообщения
Вы не можете редактировать свои сообщения
Вы не можете удалять свои сообщения
Вы не можете голосовать в опросах
Вы не можете прикреплять файлы к сообщениям
Вы не можете скачивать файлы

▼ Вниз