ML
     
  Уважаемый Гость!
Вы можете поддержать проект и зарегистрироваться у наших партнеров - онлайн-стратегия MyLands. При регистрации в игре Вы получите код, который сможете активировать после регистрации на pirat.ca и получить 1000 дублонов.

Ваш код:
db0e0ad91548759ffeb9bb88bed405e1a4b3c165
 
     

Порнография: Тайная история цивилизации / Pornography: A Secret History of Civilisation (Крис Родли / Chris Rodley) [1999 г., документальный, история, 18+, HD DVDRip-AVC] DVO (R5)

Ответить на тему
 
Автор
Сообщение

Пост 16-Сен-2016 17:32

[Q] 

somik

Легенда

-Порнография: Тайная история цивилизации / Pornography: A Secret History of Civilisation-- Производство: Великобритания, Channel 4 Television Corporation, World of Wonder
Год выпуска: 1999 г.
Жанр: документальный, история, 18+
Продолжительность: 04:59:44
Мировая премьера: 14 октября 1999
Дата выхода DVD: 3 сентября 2009, «Кармен Видео»
Перевод: Профессиональный (двухголосый, закадровый) [R5]
Режиссер: Крис Родли / Chris Rodley-В ролях: Мэрлин Милгром, Линда Уильямс, Майк Адамс, Антуан де Бак, Рольф Боровчак, Стив Бурже, Лассе Браун-Описание: Порнография — изобретение нового времени. Ни раскованная античность, ни даже Средние века с их иллюзорной стыдливостью, ни, тем более, Возрождение с его любовью к жизни не думали осуждать сексуальные изображения и тексты, считая их частью человеческой культуры.
Под строгим взглядом буржуазной морали секс научился прятаться в укромные места и превратился в неутоленное желание, навязчивую идею, мучительную манию, породившую порнографию в современном понимании. Научно-популярный фильм об истоках, смыслах и следствиях порнографии — отличная возможность подумать о природе запрета, о феномене власти, о бремени человеческих слабостей, которые стоит принять, а не травить и загонять вглубь.-
Качество видео: HD DVDRip-AVC
Контейнер: MKV
Видео кодек: MPEG4 AVC
Аудио кодек: AC3
Видео: [email protected], 5 Mb/s, 1765 Кбит/сек, 25,000 кадров/сек, VBR
Аудио: Dolby AC3, 2 ch, 192 Kbps, 48,0 kHz
Cубтитры: отсутствуют
«Ведь главное неудобство секса заключается в том, что если вы хотите заняться сексом, вам нужен партнер.»
Мне редко удается получить удовольствие или пользу, не говоря уже обо всем вместе от документального кино. Даже редко удается досмотреть его до конца, а по моему убеждению, фильму нельзя нанести большего оскорбления, чем не досмотреть его, даже если вы любитель поливать просмотренное ушатами грязи.
Ну так вот, а здесь мы видим не один фильм, а 6 околочасовых серий, при просмотре растягивающихся на еще большее время, но одна из любимых тем и современность привлекли мое внимание.
Хотелось бы просто отметить несколько моментов, которые могли бы привлечь и ваше внимание тоже.
1. Для начала-это серьезный материал, а не развлекало в духе «сенсационных открытий» или «прикиньте, древние были геями» или даже «вы все ханжи, а секс это хорошо». Информация подается не только визуально, здесь важен рассказ и мнение самих людей, делавших фильм, особенно учитывая, что среди рассказчиков есть и исследователи вопроса, и непосредственные участники описываемых событий, и даже реальные люди, и сегодня задействованные в порнобизнесе.
2. Фильм далеко не только об истории порно. Вы узнаете кое-что интересное и об искусстве, фотографии, журналах, кино. Вам покажут как сильно все происходящее взаимовлияет друг на друга настолько, что порой сложно различить причину и следствие.
3. Внимательный зритель найдет для себя массу ценных идей. Это вообще особенность работы с людьми, знаю по своему опыту, если просить их говорить и задавать вопросы, оставляющие свободу для этого, они говорят порой что-то такое, что спрашивающему и в голову бы прийти не могло. В этом большой ресурс. К тому же они смотрят на вопрос с различных позиций. У вас есть шанс решить для себя: что такое порнография, откуда она взялась и в какой степени мы с ней друг к другу относимся?
4. Наглядность. Привлечено довольно много материала, и он довольно неплохо смотрится в фильме. На мой взгляд, умение рассказывать о порно непорнографично, но давая понять, о чем речь(чтобы кто-нибудь случайно не забыл, что мы-таки о порнографии говорим), заслуживает уважения.
5. Художественность фильма приятно радует глаза. Можно вспомнить хотя бы юношу, читавшего отрывки из де Сада. Да и вообще умение расположить многих рассказчиков таким странным образом увлекает. Кто-то будет в процессе обнаженным позировать художнику, кто-то сидеть в ванной, кто-то застынет на корточках на трамплине над бассейном.
6. Обзорность. Каждая серия здесь отдельна и посвящена своему предмету. Вполне можно выбрать что-то одно, и вы получите неплохое представление о том, как с данным явлением контактировала культура порно.
И еще хочется добавить, что, может быть, мы и не скатились еще в полную «порнотопию», но то, что происходит с людьми и их взаимодействием, все страньше, и многое во время перемен зависит от того, что для вас ценно и на что вы сможете побудить того, кто рядом с вами. Например, на хороший секс.
бщее
Уникальный идентификатор : 241859407899888010009980234744037961103 (0xB5F46D773BE5F1E191CE5A8CE7A4ED8F)
Полное имя : E:\Порнография\Pornography.The Secret History of Civilization.1999.HDDVDRip-AVC.[pirat.ca]\Disc 1.mkv
Формат : Matroska
Версия формата : Version 2
Размер файла : 2,04 Гбайт
Продолжительность : 2 ч. 29 м.
Общий поток : 1956 Кбит/сек
Дата кодирования : UTC 2016-09-16 12:24:58
Программа кодирования : mkvmerge v7.8.0 ('River Man') 32bit built on Apr 3 2015 12:11:22
Библиотека кодирования : libebml v1.3.1 + libmatroska v1.4.2
Видео
Идентификатор : 1
Формат : AVC
Формат/Информация : Advanced Video Codec
Профиль формата : [email protected]
Параметр CABAC формата : Да
Параметр ReFrames формата : 2 кадра
Идентификатор кодека : V_MPEG4/ISO/AVC
Продолжительность : 2 ч. 29 м.
Битрейт : 1765 Кбит/сек
Ширина : 720 пикселей
Высота : 408 пикселей
Соотношение сторон : 16:9
Режим частоты кадров : Постоянный
Частота кадров : 25,000 кадров/сек
Цветовое пространство : YUV
Субдискретизация насыщенности : 4:2:0
Битовая глубина : 8 бит
Тип развёртки : Прогрессивная
Бит/(Пиксели*Кадры) : 0.240
Размер потока : 1,80 Гбайт (88%)
Библиотека кодирования : x264 core 146 r2538 121396c
Настройки программы : cabac=1 / ref=1 / deblock=1:-1:-1 / analyse=0x3:0x113 / me=hex / subme=7 / psy=1 / psy_rd=1.00:0.15 / mixed_ref=0 / me_range=16 / chroma_me=1 / trellis=2 / 8x8dct=1 / cqm=0 / deadzone=21,11 / fast_pskip=1 / chroma_qp_offset=-3 / threads=6 / lookahead_threads=1 / sliced_threads=0 / nr=0 / decimate=1 / interlaced=0 / bluray_compat=0 / constrained_intra=0 / bframes=1 / b_pyramid=0 / b_adapt=2 / b_bias=0 / direct=1 / weightb=1 / open_gop=0 / weightp=2 / keyint=250 / keyint_min=25 / scenecut=40 / intra_refresh=0 / rc_lookahead=40 / rc=abr / mbtree=1 / bitrate=1765 / ratetol=1.0 / qcomp=0.60 / qpmin=0 / qpmax=69 / qpstep=4 / ip_ratio=1.40 / aq=1:1.00
Default : Да
Forced : Нет
Аудио
Идентификатор : 2
Формат : AC-3
Формат/Информация : Audio Coding 3
Расширение режима : CM (complete main)
Параметр Endianness формата : Big
Идентификатор кодека : A_AC3
Продолжительность : 2 ч. 29 м.
Вид битрейта : Постоянный
Битрейт : 192 Кбит/сек
Каналы : 2 канала
Расположение каналов : Front: L R
Частота : 48,0 КГц
Частота кадров : 31,250 кадров/сек (1536 spf)
Метод сжатия : С потерями
Размер потока : 205 Мбайт (10%)
Default : Да
Forced : Нет
Download / Скачать

Хотите скачать бесплатно? Зарегистрируйтесь на сайте (ссылка на регистрацию). Pirat.ca - самый быстрый торрент трекер в рунете!

Как скачивать  ·   Что такое торрент  ·   Рейтинг и ограничения

Показать сообщения:    
Ответить на тему

Текущее время: Сегодня 08:07

Часовой пояс: GMT + 4



Вы не можете начинать темы
Вы не можете отвечать на сообщения
Вы не можете редактировать свои сообщения
Вы не можете удалять свои сообщения
Вы не можете голосовать в опросах
Вы не можете прикреплять файлы к сообщениям
Вы не можете скачивать файлы

▼ Вниз