ML
     
  Уважаемый Гость!
Вы можете поддержать проект и зарегистрироваться у наших партнеров - онлайн-стратегия MyLands. При регистрации в игре Вы получите код, который сможете активировать после регистрации на pirat.ca и получить 1000 дублонов.

Ваш код:
c3360d664ceb84802c84b88ed062a5d134e2ba97
 
     

Апокалипсис: Гитлер / Apocalypse: Hitler (Изабель Кларк, Даниэль Костелле / Izabel Clark, Daniel To kostelle)(2 серии из 2) [2011 г., Документальный, HDRip] MVO

Ответить на тему
 
Автор
Сообщение

Пост 10-Фев-2012 21:50

[Q] 

me14

Апокалипсис: Гитлер / Apocalypse: Hitler
Год выпуска: 2011
Производство: Франция
Жанр: Документальный, исторический
Продолжительность: 01:48:27
Перевод: Профессиональный (одноголосый, закадровый)
Субтитры: отсутствуют
Режиссер: Изабель Кларк, Даниэль Костелле / Izabel Clark, Daniel To kostelle
Описание: Во время Первой мировой войны (1914-1918 г.г.) неудавшийся художник вдруг осознаёт своё предназначение: спасти Германию. Никто не мог предугадать, что Гитлер станет диктатором Германии, её фюрером. Переломным моментом для него стал экономический кризис 1929 года. Нацистская диктатура покрывает своей тенью всю Германию. Гитлер заявлял, что он желает мира, но в это время он уже был готов к войне – Апокалипсису.-
Источник/Качество: HDRip
Формат: AVI
Видео кодек: XviD
Аудио кодек: AC3
Видео: 704x400, 1666 Кбит/с, 25.00fps
Аудио: AC3, 6 ch, 384 Кбит/с, 48 kHz
Формат : AVI
Формат/Информация : Audio Video Interleave
Размер файла : 799 MiB
Продолжительность : 54mn 16s
Общий поток : 2 059 Kbps
Программа кодирования : VirtualDubMod 1.5.10.2 (build 2542/release)
Библиотека кодирования : VirtualDubMod build 2542/release
Video
Идентификатор : 0
Формат : MPEG-4 Visual
Профиль формата : Advanced [email protected]
Параметр BVOP формата : 2
Параметр QPel формата : No
Параметр GMC формата : No warppoints
Параметр матрицы формата : Default (MPEG)
Идентификатор кодека : XVID
Идентификатор кодека/Подсказка : XviD
Продолжительность : 54mn 16s
Битрейт : 1 666 Kbps
Ширина : 704 pixels
Высота : 400 pixels
Соотношение сторон : 16:9
Частота кадров : 25.000 fps
Цветовое пространство : YUV
Подвыборка цветности : 4:2:0
Битовая глубина : 8 bits
Тип развёртки : Progressive
Метод сжатия : Lossy
Бит/(Пиксели*Кадры) : 0.237
Размер потока : 647 MiB (81%)
Библиотека кодирования : XviD 1.2.1 (UTC 2008-12-04)
Audio
Идентификатор : 1
Формат : AC-3
Формат/Информация : Audio Coding 3
Расширение режима : CM (complete main)
Идентификатор кодека : 2000
Продолжительность : 54mn 15s
Вид битрейта : Constant
Битрейт : 384 Kbps
Канал(ы) : 6 channels
Расположение каналов : Front: L C R, Side: L R, LFE
Частота : 48.0 KHz
Битовая глубина : 16 bits
Метод сжатия : Lossy
Размер потока : 149 MiB (19%)
Выравнивание : Split accross interleaves
Продолжительность промежутка : 40 ms (1.00 video frame)
Время предзагрузки промежутка : 500 ms
Фильм состоит из 2-х частей:
1 Угроза / La Menace
2 Фюрер / Le Fuhrer
-
Download / Скачать

Хотите скачать бесплатно? Зарегистрируйтесь на сайте (ссылка на регистрацию). Pirat.ca - самый быстрый торрент трекер в рунете!

Как скачивать  ·   Что такое торрент  ·   Рейтинг и ограничения

popov234

Корсар

Пост 11-Фев-2012 02:18 (спустя 4 часа)

[Q] 

Когда же можно будет скачать документальный фильм.
[Профиль]  [ЛС] 

Seva78

1518

Пост 11-Фев-2012 02:20 (спустя 1 минута)

[Q] 

popov234,
А почему нельзя качать? Качайте на здоровье,с раздачей всё ок.

_________________
[Профиль]  [ЛС] 

skarabey

Штурман

7

Пост 03-Май-2012 11:09 (спустя 2 месяца 21 день)

[Q] 

скорости нет
[Профиль]  [ЛС] 
Показать сообщения:    
Ответить на тему

Текущее время: Сегодня 10:08

Часовой пояс: GMT + 4



Вы не можете начинать темы
Вы не можете отвечать на сообщения
Вы не можете редактировать свои сообщения
Вы не можете удалять свои сообщения
Вы не можете голосовать в опросах
Вы не можете прикреплять файлы к сообщениям
Вы не можете скачивать файлы

▼ Вниз