ML
     
  Уважаемый Гость!
Вы можете поддержать проект и зарегистрироваться у наших партнеров - онлайн-стратегия MyLands. При регистрации в игре Вы получите код, который сможете активировать после регистрации на pirat.ca и получить 1000 дублонов.

Ваш код:
c3360d664ceb84802c84b88ed062a5d134e2ba97
 
     

Век эгоизма. Часть 2 – Конструирование согласия / The Century of the Self. Part 2 - The Engineering of Consent (Адам Кёртис) [2002 г., документальный, TVRip] MVO [проект Zaryad]

Ответить на тему
 
Автор
Сообщение

Пост 11-Фев-2012 04:46

[Q] 

memorro7

Штурман

Век эгоизма. Часть 2 – Конструирование согласия / The Century of the Self. Part 2 - The Engineering of Consent
Год выпуска: 2002
Производство: Великобритания
Жанр: документальный
Продолжительность серии: 00:58:52
Перевод: Профессиональный (одноголосый, закадровый)
Автор(ы) перевода: проект Zaryad
Субтитры: отсутствуют
Режиссер: Адам Кёртис
В ролях: Вернер Эрхард
Мартин С. Бергманн
Тони Блэр
Билл Клинтон
Адам Кертис
Роберт Рич
Вильгельм Райх
Описание: Это – история о том, как идеи Зигмунда Фрейда о бессознательном были использованы элитой в послевоенной Америке, чтобы проводить эксперименты над массами людей и управлять ими. Политики и их советники пришли к убеждению, что Фрейд был прав, предполагая, что глубоко внутри каждого человека скрыты опасные иррациональные желания и страхи. Они были убеждены, что именно высвобождение этих инстинктов привело к варварству в
нацистской Германии.
Чтобы никогда не допустить повторения подобного, они начали поиски методов, позволяющих контролировать этого врага, скрытого в недрах человеческого сознания. В центре нашей истории находятся дочь Зигмунда Фрейда, Анна, и его племянник Эдвард Бернейс, который изобрел профессию пиарщика. Их идеи были использованы американским правительством, крупным бизнесом и ЦРУ, чтобы разработать приемы контроля и управления сознанием людей в Америке.
Стоящие у власти верили, что единственным методом, который мог бы заставить демократию работать и привести к стабильному обществу, было подавление дикого варварства, которое притаилось почти за самым фасадом нормальной американской жизни.
Релиз:
Источник/Качество: TVRip
Формат: AVI
Видео кодек: DivX
Аудио кодек: MP3
Видео: 640x480 (1.33:1), 29.970 fps, DivX Codec 6.8.5/6.9.1 ~655 kbps avg, 0.07 bit/pixel
Аудио: 48 kHz, MPEG Layer 3, 1 ch, ~64.00 kbps avg
Format : AVI
Format/Info : Audio Video Interleave
File size : 315 MiB
Duration : 58mn 52s
Overall bit rate : 747 Kbps
Writing application : VirtualDubMod 1.5.10.2 (build 2542/release)
Writing library : VirtualDubMod build 2542/release
Video
ID : 0
Format : MPEG-4 Visual
Format settings, BVOP : 3
Format settings, QPel : No
Format settings, GMC : No warppoints
Format settings, Matrix : Default (H.263)
Muxing mode : Packed bitstream
Codec ID : DX50
Codec ID/Hint : DivX 5
Duration : 58mn 52s
Bit rate : 672 Kbps
Width : 640 pixels
Height : 480 pixels
Display aspect ratio : 4:3
Frame rate : 29.970 fps
Color space : YUV
Chroma subsampling : 4:2:0
Bit depth : 8 bits
Scan type : Progressive
Compression mode : Lossy
Bits/(Pixel*Frame) : 0.073
Stream size : 283 MiB (90%)
Writing library : DivX 6.8.5 (UTC 2009-08-20)
Audio
ID : 1
Format : MPEG Audio
Format version : Version 1
Format profile : Layer 3
Codec ID : 55
Codec ID/Hint : MP3
Duration : 58mn 51s
Bit rate mode : Constant
Bit rate : 64.0 Kbps
Channel(s) : 1 channel
Sampling rate : 48.0 KHz
Compression mode : Lossy
Stream size : 26.9 MiB (9%)
Alignment : Split accross interleaves
Interleave, duration : 33 ms (1.00 video frame)
Interleave, preload duration : 500 ms
Смотрите также:
Библия 21 века DVD-Video №1 - Новый мировой порядок
Высшая Социология (Григорий Климов)
Князь Мира Сего - Григорий Климов
Психиатрия индустрия смерти
Download / Скачать

Хотите скачать бесплатно? Зарегистрируйтесь на сайте (ссылка на регистрацию). Pirat.ca - самый быстрый торрент трекер в рунете!

Как скачивать  ·   Что такое торрент  ·   Рейтинг и ограничения

nokia_series

Корсар

Пост 11-Фев-2012 19:14 (спустя 14 часов)

[Q] 

Заценим, столь неоднозначное кино.
[Профиль]  [ЛС] 

olezhka

Морской Волк

Пост 22-Май-2013 18:48 (спустя 1 год 3 месяца)

[Q] 

неплохой фильм, только вот никто не раздаёт
[Профиль]  [ЛС] 
Показать сообщения:    
Ответить на тему

Текущее время: Сегодня 10:08

Часовой пояс: GMT + 4



Вы не можете начинать темы
Вы не можете отвечать на сообщения
Вы не можете редактировать свои сообщения
Вы не можете удалять свои сообщения
Вы не можете голосовать в опросах
Вы не можете прикреплять файлы к сообщениям
Вы не можете скачивать файлы

▼ Вниз