ML
     
  Уважаемый Гость!
Вы можете поддержать проект и зарегистрироваться у наших партнеров - онлайн-стратегия MyLands. При регистрации в игре Вы получите код, который сможете активировать после регистрации на pirat.ca и получить 1000 дублонов.

Ваш код:
a6d1ef7ff63e237add5a4c8b21d8aa937c5e9b4b
 
     

Удивительный архив. Потерянные секреты Николы Теслы / Phenomenon the lost archives. Missing Secrets Of Nikola Tesla (Джей Миракл) [1998 г., документальный, SATRip] MVO [проект Zaryad]

Ответить на тему
 
Автор
Сообщение

Пост 18-Фев-2012 03:48

[Q] 

memorro7

Штурман

Удивительный архив. Потерянные секреты Николы Теслы / Phenomenon the lost archives. Missing Secrets Of Nikola Tesla
Год выпуска: 1998
Производство: США
Жанр: документальный
Продолжительность серии: 00:48:30
Перевод: Профессиональный (одноголосый, закадровый)
Автор(ы) перевода: проект Zaryad
Релиз:
Субтитры: отсутствуют
Режиссер: Джей Миракл
В ролях: Дин Стаквелл, Билл Роджерс, Том Бирден
Описание: Многие из нас хотели бы верить, что достижения великих людей получают признание, даже если не сразу, то со временем. Просмотрев этот фильм вы будете поражены, узнав, что по крайней мере один человек, чьи достижения затрагивают почти каждую сторону нашей повседневной жизни, был практически предан забвению. Накануне 20 века Никола Тесла, изобретатель, эмигрировавший из Сербии, чье имя сейчас практически забыто, открыл для нас окно в новую эпоху. Использование переменного тока, радио, люминесцентных ламп, дистанционного управления, робототехники, в общей сложности около 700 патентов - все было подвластно этому человеку. Тогда он понял основы энергии и резонанса, какова природа энергии, находящейся в космосе, какова суть энергии, которая приходит из ниоткуда, чтобы подарить ее нам. Тесла был не согласен с другими учеными по ряду основных положений теории относительности, квантовомеханической теории. Он впал в немилость и не попал в список лучших ученых того времени. Почему коллеги настолько пренебрегали таким выдающимся человеком? Возможно, дело скорее в тех изобретениях, которые ему не удалось внедрить, чем в общепризнанных достижениях. Тесла очень хорошо разбирался в квантовой механике и теории относительности Эйнштейна. Обе теории были разработаны во время его жизни. Он подозревал, что рано или поздно квантовомеханическая теория и теория относительности испытают кризис. Поэтому он, говорил: “Сегодняшний день принадлежит им, а будущее останется за мной”. Мне кажется, современная наука должна по-новому взглянуть на некоторые теории Теслы, потому что во вселенной есть гораздо больше, чем то, что мы видим, что мы наблюдаем с помощью наших инструментов. Мы достигли того момента в постоянной эволюции, когда возможности проектирования и манипуляций пространством, временем и гравитацией уже почти у нас в руках. Мы находимся на пороге перехода к новым технологиям. Никола Тесла был “хранителем молний”. Одни из его идей снискали ему славу сумасшедшего, другие постоянно потрясали мир науки, а третьи изменили нашу планету и жизнь. В следующий раз, когда вы соберетесь посмотреть что-то на кабельном канале, вспомните человека, который сделал все это возможным. Вероятно, вы можете представить мир, пользующийся безграничными запасами энергии бесплатно, мир без проводов. Это то, что мы потеряли, потеряли молнии Николы Теслы.
Энди Стаквелл и Удивительный архив.
Источник/Качество: SATRip
Формат: AVI
Видео кодек: H.264
Аудио кодек: MP3
Видео: 720x480 (3:2), 29.97fps 894kbps, H.264, 0.086 bit/pixel
Аудио: MPEG Audio Layer 3, 64kbps, 48kHz, 1 ch
Format : AVI
Format/Info : Audio Video Interleave
File size : 75.5 MiB
Duration : 48mn 30s
Overall bit rate : 218 Kbps
Writing application : VirtualDubMod 1.5.10.2 (build 2542/release)
Writing library : VirtualDubMod build 2542/release
Video
ID : 0
Format : AVC
Format/Info : Advanced Video Codec
Format profile : [email protected]
Format settings, CABAC : Yes
Format settings, ReFrames : 3 frames
Codec ID : H264
Duration : 48mn 30s
Bit rate : 136 Kbps
Width : 720 pixels
Height : 480 pixels
Display aspect ratio : 3:2
Frame rate : 29.970 fps
Standard : NTSC
Color space : YUV
Chroma subsampling : 4:2:0
Bit depth : 8 bits
Scan type : Progressive
Bits/(Pixel*Frame) : 0.013
Stream size : 47.2 MiB (63%)
Writing library : x264 core 96 r1613kMod 81e75e9
Encoding settings : cabac=1 / ref=3 / deblock=1:0:0 / analyse=0x3:0x13 / me=umh / subme=7 / psy=1 / psy_rd=1.00:0.00 / mixed_ref=1 / me_range=16 / chroma_me=1 / trellis=1 / 8x8dct=1 / cqm=0 / deadzone=21,11 / fast_pskip=1 / chroma_qp_offset=-2 / threads=3 / sliced_threads=1 / slices=3 / nr=0 / decimate=1 / interlaced=0 / constrained_intra=0 / bframes=0 / weightp=2 / keyint=250 / keyint_min=25 / scenecut=40 / intra_refresh=0 / rc=cqp / mbtree=0 / qp=27 / ip_ratio=1.40 / aq=0
Audio
ID : 1
Format : MPEG Audio
Format version : Version 1
Format profile : Layer 3
Codec ID : 55
Codec ID/Hint : MP3
Duration : 48mn 30s
Bit rate mode : Constant
Bit rate : 64.0 Kbps
Channel(s) : 1 channel
Sampling rate : 48.0 KHz
Compression mode : Lossy
Stream size : 22.2 MiB (29%)
Alignment : Split accross interleaves
Download / Скачать

Хотите скачать бесплатно? Зарегистрируйтесь на сайте (ссылка на регистрацию). Pirat.ca - самый быстрый торрент трекер в рунете!

Как скачивать  ·   Что такое торрент  ·   Рейтинг и ограничения

tommek

Морской Волк

231

Пост 19-Фев-2012 15:38 (спустя 1 день 11 часов)

[Q] 

держи бочку за раздачу

_________________
[Профиль]  [ЛС] 

sergeev_igor1977

Морской Волк

Пост 24-Апр-2012 13:50 (спустя 2 месяца 4 дня)

[Q] 

что скажите как фильм?
[Профиль]  [ЛС] 

Ветеран

Морской Волк

Пост 17-Июн-2012 01:30 (спустя 1 месяц 22 дня)

[Q] 

Посмотрю отпишусь
[Профиль]  [ЛС] 

Ветеран

Морской Волк

Пост 25-Июн-2012 10:14 (спустя 8 дней)

[Q] 

Так себе,много тумана и ни чего конкретного!!!
[Профиль]  [ЛС] 
Показать сообщения:    
Ответить на тему

Текущее время: Сегодня 13:34

Часовой пояс: GMT + 4



Вы не можете начинать темы
Вы не можете отвечать на сообщения
Вы не можете редактировать свои сообщения
Вы не можете удалять свои сообщения
Вы не можете голосовать в опросах
Вы не можете прикреплять файлы к сообщениям
Вы не можете скачивать файлы

▼ Вниз