ML
     
  Уважаемый Гость!
Вы можете поддержать проект и зарегистрироваться у наших партнеров - онлайн-стратегия MyLands. При регистрации в игре Вы получите код, который сможете активировать после регистрации на pirat.ca и получить 1000 дублонов.

Ваш код:
500cb7bd8d2cec9a8aba647a87ce41c4b76f06bd
 
     

Майя. Пророки Апокалипсиса (Компания "Киносоюз") [2012 г., Документальный, SATRip]

Ответить на тему
 
Автор
Сообщение

Пост 21-Фев-2012 12:03

[Q] 

me14

Майя. Пророки Апокалипсиса
Год выпуска: 2012
Производство: Россия
Жанр: Документальный
Продолжительность серии: 00:35:22
Перевод: Не требуется
Субтитры: отсутствуют
Режиссер: Компания "Киносоюз"
Описание: В мексиканской сельве стоит ковчег. Вокруг суетятся люди разных национальностей. На доработку ковчега у них осталось чуть больше года. Все эти люди готовятся к концу света, который "назначен" на 2012 год календарем майя. Поселение вокруг ковчега сумбурное, спонтанное. Несколько лет назад сюда приехали итальянцы, уверовавшие в конец света, и принялись строить большую лодку. Слух об искателях спасения быстро распространился, и вот уже около сотни человек со всех стран мира строят тут ковчег, который стоит неподалеку от пирамид майя. Жители городка с ковчегом посередине уверены, что конец света непременно будет в 2012-м, а цивилизация майя погибла. Индейцы, которые живут рядом с чудными европейцами, дружат с ними, помогают, но явно подшучивают на своем странном, никому неизвестном языке. Язык этот – майя, индейцы эти – тоже майя, они никуда не уходили от своих пирамид. Живут с ними рядом, зарабатывают деньги тем, что продают за двадцать песо богов древней цивилизации, сделанных из дерева и пластика. На полуострове Юкатан живет 6 миллионов майя. Они сохранили язык и традиции своей якобы умершей цивилизации. Живут майя очень бедно, на окнах вместо стекол пакеты, ни холодильников, ни телевизоров, ни горячей воды. Майя охотятся, вырезают из деревьев богов, толкут в ступках маис, делают лепешки. В каждом поселении есть старейшина, к нему идут за советами и за лекарствами, которые он делает из корешков и трав. Но есть деревня в сельве, где живут жрецы. Попасть к ним могут только избранные. Жрецы эти лечат и предсказывают будущее. До сих пор они исполняют обряды майя, следуют всем обычаям. Чтобы попасть к этим жрецам, нужно втереться в доверие к их проводникам в цивилизованном мире, то есть к тем майя, которые торгуют на пирамидах и живут рядом. Автор фильма, поселившись в доме одного из торговцев, ест с ним, охотится, собирает фрукты и попадает наконец-то к жрецам. Оказывается, что индейцы и правда никуда не уходили. Майя ушли в леса, когда пришли испанцы. Они живут по календарю, который оставил им бог Кукулькан. Уже прошло 500 лет, а сельва Юкатана так и не поддалась цивилизации. И здесь все осталось так, как и было сотни лет назад. Но жрецы до конца не знают, как трактовать календарь, оставленный Кукульканом. Для себя они решили, что Бог имел в виду второе пришествие, которого все индейцы ждут. И поэтому они не принимают навязанную 500 лет назад испанцами цивилизацию. Майя – другие, и они ждут своего Бога, который укажет им их собственный путь.-
Источник/Качество: SATRip
Формат: AVI
Видео кодек: DivX
Аудио кодек: MP3
Видео: 720x416, 25 fps, DivX Codec , 1600 kbps avg
Аудио: 48 kHz, MPEG Layer 3, 2 ch, 128.00 kbps avg
Формат : AVI
Формат/Информация : Audio Video Interleave
Размер файла : 440 MiB
Продолжительность : 35mn 22s
Общий поток : 1 738 Kbps
Библиотека кодирования : VirtualDub build 30009/release
Video
Идентификатор : 0
Формат : MPEG-4 Visual
Параметр BVOP формата : 1
Параметр QPel формата : No
Параметр GMC формата : No warppoints
Параметр матрицы формата : Default (H.263)
Режим смешивания : Packed bitstream
Идентификатор кодека : DX50
Идентификатор кодека/Подсказка : DivX 5
Продолжительность : 35mn 22s
Битрейт : 1 600 Kbps
Ширина : 720 pixels
Высота : 416 pixels
Соотношение сторон : 16:9
Частота кадров : 25.000 fps
Цветовое пространство : YUV
Подвыборка цветности : 4:2:0
Битовая глубина : 8 bits
Тип развёртки : Progressive
Метод сжатия : Lossy
Бит/(Пиксели*Кадры) : 0.214
Размер потока : 405 MiB (92%)
Библиотека кодирования : DivX 6.8.5 (UTC 2009-08-20)
Audio
Идентификатор : 1
Формат : MPEG Audio
Версия формата : Version 1
Профиль формата : Layer 3
Режим : Joint stereo
Расширение режима : MS Stereo
Идентификатор кодека : 55
Идентификатор кодека/Подсказка : MP3
Продолжительность : 35mn 22s
Вид битрейта : Constant
Битрейт : 128 Kbps
Канал(ы) : 2 channels
Частота : 48.0 KHz
Метод сжатия : Lossy
Размер потока : 32.4 MiB (7%)
Выравнивание : Split accross interleaves
Продолжительность промежутка : 40 ms (1.00 video frame)
Время предзагрузки промежутка : 500 ms
-
Download / Скачать

Хотите скачать бесплатно? Зарегистрируйтесь на сайте (ссылка на регистрацию). Pirat.ca - самый быстрый торрент трекер в рунете!

Как скачивать  ·   Что такое торрент  ·   Рейтинг и ограничения

Показать сообщения:    
Ответить на тему

Текущее время: Сегодня 01:48

Часовой пояс: GMT + 4



Вы не можете начинать темы
Вы не можете отвечать на сообщения
Вы не можете редактировать свои сообщения
Вы не можете удалять свои сообщения
Вы не можете голосовать в опросах
Вы не можете прикреплять файлы к сообщениям
Вы не можете скачивать файлы

▼ Вниз