ML
     
  Уважаемый Гость!
Вы можете поддержать проект и зарегистрироваться у наших партнеров - онлайн-стратегия MyLands. При регистрации в игре Вы получите код, который сможете активировать после регистрации на pirat.ca и получить 1000 дублонов.

Ваш код:
9cfe162481db953a6549f32179d7b3900b8b8643
 
     

Энергия из вакуума 3 – Отрицательное сопротивление / Energy from the vacuum. Part 3 - Chung Experiment - Negative resistance (Энтони Дж. Креддок) [2007 г., документальный, DVDRip] VO

Ответить на тему
 
Автор
Сообщение

Пост 25-Фев-2012 07:41

[Q] 

memorro7

Штурман

Энергия из вакуума 3 – Отрицательное сопротивление / Energy from the vacuum. Part 3 - Chung Experiment - Negative resistance
Год выпуска: 2007
Производство: США
Жанр: документальный
Продолжительность серии: 00:41:16
Перевод: Профессиональный (одноголосый, закадровый)
Автор(ы) перевода: проект Zaryad
Субтитры: отсутствуют
Режиссер: Энтони Дж. Креддок
В ролях: Дебора Чанг, Том Бирден
Описание: 9 июля 1998 года на пятой Международной конференции по композитным материалам в Лас-Вегасе в своем докладе доктор Дебора Чанг, профессор машиностроения и авиакосмической техники Университета Буффало, рассказала о том, что она наблюдала появление отрицательного сопротивления на границе между слоями углеродного волокна в композитном материале. Профессор Чанг возглавляет кафедру материаловедения энергетической компании Ниагара Могавк при Университете Буффало и получила международную известность благодаря исследованиям в области интеллектуальных материалов и углеродных композитов. Работа Чанг, в которой описано данное исследование, была опубликована в рецензируемой газете, и Университет подал заявку на патент. Вскоре после этого в популярных научных изданиях появилось несколько статей, критикующих это исследование. В них приводились цитаты признанных ученых о том, что якобы отрицательное сопротивление нарушает законы физики и термодинамики. Другие же думали, что исследователи Университета Буффало, сами того не подозревая, собрали небольшой аккумулятор. Профессор Чанг - ведущий исследователь в области интеллектуальных материалов в США и ученый с мировой известностью. В течение года ее команда исследовала это явление в лаборатории. Вот ее рассказ.
Релиз:
Источник/Качество: DVDRip
Формат: AVI
Видео кодек: H.264
Аудио кодек: MP3
Видео: 852x480 (1.77:1), 23.976 fps, AVC (х264), [email protected], ~987 kbps avg, 0.10 bit/pixel
Аудио: 48 kHz, MPEG Layer 3, 1 ch, ~64.00 kbps avg
General
Complete name Energy from Vacuum - The Chung experement RUS.avi
Format : AVI
Format/Info : Audio Video Interleave
File size : 313 MiB
Duration : 41mn 16s
Overall bit rate : 1 060 Kbps
Writing application : VirtualDubMod 1.5.10.2 (build 2542/release)
Writing library : VirtualDubMod build 2542/release
Video
ID : 0
Format : AVC
Format/Info : Advanced Video Codec
Format profile : [email protected]
Format settings, CABAC : Yes
Format settings, ReFrames : 3 frames
Codec ID : H264
Duration : 41mn 16s
Bit rate : 987 Kbps
Width : 852 pixels
Height : 480 pixels
Display aspect ratio : 16:9
Frame rate : 23.976 fps
Original frame rate : 25.000 fps
Color space : YUV
Chroma subsampling : 4:2:0
Bit depth : 8 bits
Scan type : Progressive
Bits/(Pixel*Frame) : 0.101
Stream size : 291 MiB (93%)
Writing library : x264 core 96 r1613kMod 81e75e9
Encoding settings : cabac=1 / ref=3 / deblock=1:0:0 / analyse=0x3:0x13 / me=umh / subme=7 / psy=1 / psy_rd=1.00:0.00 / mixed_ref=1 / me_range=16 / chroma_me=1 / trellis=1 / 8x8dct=1 / cqm=0 / deadzone=21,11 / fast_pskip=1 / chroma_qp_offset=-2 / threads=3 / sliced_threads=1 / slices=3 / nr=0 / decimate=1 / interlaced=0 / constrained_intra=0 / bframes=0 / weightp=2 / keyint=250 / keyint_min=25 / scenecut=40 / intra_refresh=0 / rc=cqp / mbtree=0 / qp=30 / ip_ratio=1.40 / aq=0
Audio
ID : 1
Format : MPEG Audio
Format version : Version 1
Format profile : Layer 3
Codec ID : 55
Codec ID/Hint : MP3
Duration : 41mn 16s
Bit rate mode : Constant
Bit rate : 64.0 Kbps
Channel(s) : 1 channel
Sampling rate : 48.0 KHz
Compression mode : Lossy
Stream size : 18.9 MiB (6%)
Alignment : Split accross interleaves
Interleave, duration : 42 ms (1.00 video frame)
Interleave, preload duration : 500 ms
Смотрите также:
Другие «Релизы проекта Заряд»
Руководство по однополюсным двигателям Бедини (рус.)
Научный сериал «Энергия из вакуума»
д/ф «История магнитного генератора Джона Серла»
д/ф «Потерянные секреты Николы Теслы»
д/ф «Генератор Тесла (Грузинский вариант)»
д/ф «Тяжелый Уотергейт - Война против холодного ядерного синтеза»
д/ф «Кто убил электромобиль»
д/ф «Новая теория атомного ядра - Болотов Борис Васильевич»
д/ф «Начало импульсной энергетики будущего - Канарев Ф.М.»
Download / Скачать

Хотите скачать бесплатно? Зарегистрируйтесь на сайте (ссылка на регистрацию). Pirat.ca - самый быстрый торрент трекер в рунете!

Как скачивать  ·   Что такое торрент  ·   Рейтинг и ограничения

bogomaz

Корсар

Пост 25-Фев-2012 19:56 (спустя 12 часов)

[Q] 

ок

_________________
всплываем братва!!!Хау реру амиго`с!!!
[Профиль]  [ЛС] 

UcrusPazzo

7670

Пост 25-Янв-2013 00:31 (спустя 10 месяцев 28 дней)

[Q] 


_________________
[Профиль]  [ЛС] 
Показать сообщения:    
Ответить на тему

Текущее время: Сегодня 06:06

Часовой пояс: GMT + 4



Вы не можете начинать темы
Вы не можете отвечать на сообщения
Вы не можете редактировать свои сообщения
Вы не можете удалять свои сообщения
Вы не можете голосовать в опросах
Вы не можете прикреплять файлы к сообщениям
Вы не можете скачивать файлы

▼ Вниз