ML
     
  Уважаемый Гость!
Вы можете поддержать проект и зарегистрироваться у наших партнеров - онлайн-стратегия MyLands. При регистрации в игре Вы получите код, который сможете активировать после регистрации на pirat.ca и получить 1000 дублонов.

Ваш код:
47bfc18b89c74e4ae0d974e9b6943639e2bff08e
 
     

Энергия из вакуума. Часть 4 - Магнитный двигатель Говарда Джонсона / Energy from the vacuum. Part 4 - Howard Johnson - Magnetic Exchange (Энтони Дж. Креддок) [2008 г., документальный, DVDRip] VO

Ответить на тему
 
Автор
Сообщение

Пост 03-Мар-2012 11:23

[Q] 

memorro7

Штурман

Энергия из вакуума. Часть 4 - Магнитный двигатель Говарда Джонсона / Energy from the vacuum. Part 4 - Howard Johnson - Magnetic Exchange
Год выпуска: 2008
Производство: США
Жанр: документальный
Продолжительность серии: 02:07:08
Перевод: Профессиональный (одноголосый, закадровый)
Автор(ы) перевода: проект Zaryad
Субтитры: отсутствуют
Режиссер: Энтони Дж. Креддок
В ролях: Говард Джонсон, Том Бирден, Энтони Креддок
Описание: Говард Джонсон - Первопроходец, “приручивший” силы магнетизма.
Заглянуть в будущее довольно трудно. Я думаю, что мы сейчас начинаем понимать, что если делать то, что мы делали раньше, то это не поможет нам решить энергетические проблемы. Что еще меня забавляет, это то, что когда говорят о солнечной энергии, то не принимают в расчет пасмурные дни. Это показывает то, что делают люди, когда у них в голове абсолютный вакуум. Чтобы это работало, всегда должно быть солнечно.
Сегодня, в условиях высокой стоимости энергии, несложно подогреть интерес к любой альтернативе, которая подарит луч надежды или подскажет выход. Но в 1942 году все было по-другому. Нужна была искренняя вера в то, что не напрасно тратится время, не напрасно тратятся деньги. Нужна была искренняя вера в собственные силы, чтобы противостоять оппозиции, особенно, когда я обнародовал результаты своей работы и вынужден был встречаться с людьми, придерживающимися статус-кво.
Когда я начал заниматься магнитами, это не было необходимостью. Но сейчас мы живем в последние дни умирающей нефтяной эры. Вот, что сейчас происходит. Я говорил, что когда бензин для автомобилей будет стоить 50 центов за литр, то тогда мы, возможно, сдвинемся с места.
Говард Джонсон, автор книги "Неизвестный мир магнитов".
Много лет назад, когда Говард Джонсон сделал свой первый роторный двигатель, он привез его в Хантсвилл, чтобы показать мне. Это было в 70-х. Мы сидели на кухне, и я играл с его моделью часа два или три, она меня завораживала. В ней не было ничего, кроме постоянных магнитов, и как только тележка становилась на рельсы, она сразу же начинала ехать и издавала характерный звук. Она была выполнена грубо, но ехала и ехала по рельсам. Она ездила у меня часа два, и там не было ничего, кроме постоянных магнитов. Момент вращения был настолько велик, что несмотря на плохие подшипники, эта тарелка для бутербродов продолжала вращаться. Даже с плохими подшипниками, он поставил постоянные магниты и заставил эту тарелку вращаться.
Тогда вопрос о реальности не ставился, ставился вопрос о том, как объяснить это. Но Джонсон знал о силе взаимодействия магнитов. Он точно знал, что нужно делать, потому что нашел научное обоснование для сборки самодвижущегося магнитного двигателя, содержащего только постоянные магниты.
Том Бирден.
Релиз:
Источник/Качество: DVDRip
Формат: AVI
Видео кодек: H.264
Аудио кодек: MP3
Видео: 852x480 (1.775:1), 23.976 fps, AVC (х264) [email protected], 664 Kbps, 0.068 bit/pixel
Аудио: 48.0 KHz, MPEG Audio Layer 3, 1 Ch, 64.0 Kbps
Format : AVI
Format/Info : Audio Video Interleave
File size : 670 MiB
Duration : 2h 7mn
Overall bit rate : 737 Kbps
Writing application : VirtualDubMod 1.5.10.2 (build 2542/release)
Writing library : VirtualDubMod build 2542/release
Video
ID : 0
Format : AVC
Format/Info : Advanced Video Codec
Format profile : [email protected]
Format settings, CABAC : Yes
Format settings, ReFrames : 3 frames
Codec ID : H264
Duration : 2h 7mn
Bit rate : 664 Kbps
Width : 852 pixels
Height : 480 pixels
Display aspect ratio : 16:9
Frame rate : 23.976 fps
Original frame rate : 25.000 fps
Color space : YUV
Chroma subsampling : 4:2:0
Bit depth : 8 bits
Scan type : Progressive
Bits/(Pixel*Frame) : 0.068
Stream size : 604 MiB (90%)
Writing library : x264 core 96 r1613kMod 81e75e9
Encoding settings : cabac=1 / ref=3 / deblock=1:0:0 / analyse=0x3:0x13 / me=umh / subme=7 / psy=1 / psy_rd=1.00:0.00 / mixed_ref=1 / me_range=16 / chroma_me=1 / trellis=1 / 8x8dct=1 / cqm=0 / deadzone=21,11 / fast_pskip=1 / chroma_qp_offset=-2 / threads=3 / sliced_threads=1 / slices=3 / nr=0 / decimate=1 / interlaced=0 / constrained_intra=0 / bframes=0 / weightp=2 / keyint=250 / keyint_min=25 / scenecut=40 / intra_refresh=0 / rc=cqp / mbtree=0 / qp=30 / ip_ratio=1.40 / aq=0
Audio
ID : 1
Format : MPEG Audio
Format version : Version 1
Format profile : Layer 3
Codec ID : 55
Codec ID/Hint : MP3
Duration : 2h 7mn
Bit rate mode : Constant
Bit rate : 64.0 Kbps
Channel(s) : 1 channel
Sampling rate : 48.0 KHz
Compression mode : Lossy
Stream size : 58.2 MiB (9%)
Alignment : Split accross interleaves
Interleave, duration : 42 ms (1.00 video frame)
Interleave, preload duration : 500 ms
Смотрите также:
Другие «Релизы проекта Заряд»
Руководство по однополюсным двигателям Бедини (рус.)
Научный сериал «Энергия из вакуума»
д/ф «История магнитного генератора Джона Серла»
д/ф «Потерянные секреты Николы Теслы»
д/ф «Генератор Тесла (Грузинский вариант)»
д/ф «Тяжелый Уотергейт - Война против холодного ядерного синтеза»
д/ф «Кто убил электромобиль»
д/ф «Новая теория атомного ядра - Болотов Борис Васильевич»
д/ф «Начало импульсной энергетики будущего - Канарев Ф.М.»
Download / Скачать

Хотите скачать бесплатно? Зарегистрируйтесь на сайте (ссылка на регистрацию). Pirat.ca - самый быстрый торрент трекер в рунете!

Как скачивать  ·   Что такое торрент  ·   Рейтинг и ограничения

Показать сообщения:    
Ответить на тему

Текущее время: Сегодня 07:00

Часовой пояс: GMT + 4



Вы не можете начинать темы
Вы не можете отвечать на сообщения
Вы не можете редактировать свои сообщения
Вы не можете удалять свои сообщения
Вы не можете голосовать в опросах
Вы не можете прикреплять файлы к сообщениям
Вы не можете скачивать файлы

▼ Вниз