ML
     
  Уважаемый Гость!
Вы можете поддержать проект и зарегистрироваться у наших партнеров - онлайн-стратегия MyLands. При регистрации в игре Вы получите код, который сможете активировать после регистрации на pirat.ca и получить 1000 дублонов.

Ваш код:
0fcd44bd35319f69313aa6e53b31c51cbff1c942
 
     

Карточные фокусы (Сергей Солоницын) [2009 г., Документальный, SATRip]

Ответить на тему
 
Автор
Сообщение

Пост 30-Окт-2011 10:38

[Q] 

Степаныч

Карточные фокусы
Год выпуска: 2009
Страна: Россия
Жанр: Документальный
Продолжительность: 00:55:05
Перевод: Не требуется
Режиссер: Сергей Солоницын
В ролях: Вице-президент Российской ассоциации иллюзионистов, фокусник Сергей Солоницин.Два молодых человека.
Описание: Фильм познакомит Вас с одним из богатейших ее разделов - фокусами с картами. Освоив несколько основных приемов и навыков, которые продемонстрирует Вам вице-президент Российской ассоциации иллюзионистов Сергей Солоницин.
Вы сможете не только развлечь своих близких веселыми и удивительными фокусами, но и разовьете свое внимание и ловкость.
Познавательный фильм расскажет вам множество карточных фокусов. Этому искусству учатся многие годы и так бывает, что секрет невозможно разгадать без предварительной подготовки. Мастер фокусов представляет мастер-класс карточных секретов.
Качество: SATRip
Формат: AVI
Видео кодек: XviD
Аудио кодек: MP3
Видео: MPEG4, XviD, 720x576 (16/9), 25.000 fps, 1 610 Kbps (0.155 bit/pixel)
Аудио: MP3, 44.1 KHz, 2 ch, 256 Kbps, CBR
Формат : AVI
Формат/Информация : Audio Video Interleave
Размер файла : 740 Мбайт
Продолжительность : 55 м.
Общий поток : 1878 Кбит/сек
Программа кодирования : MEncoder SVN-r30881(20100311-gcc4.3.3)
Библиотека кодирования : MPlayer
Видео
Идентификатор : 0
Формат : MPEG-4 Visual
Профиль формата : Advanced [email protected]
Параметр BVOP формата : 2
Параметр QPel формата : Нет
Параметр GMC формата : Без точки перехода
Параметр матрицы формата : Default (H.263)
Идентификатор кодека : XVID
Идентификатор кодека/Подсказка : XviD
Продолжительность : 55 м.
Битрейт : 1610 Кбит/сек
Ширина : 720 пикс.
Высота : 576 пикс.
Соотношение сторон : 16:9
Частота кадров : 25,000 кадр/сек
Стандарт вещания : PAL
Цветовое пространство : YUV
Подвыборка цветности : 4:2:0
Битовая глубина : 8 бит
Тип развёртки : Прогрессивная
Метод сжатия : С потерями
Бит/(Пиксели*Кадры) : 0.155
Размер потока : 634 Мбайт (86%)
Библиотека кодирования : XviD 1.2.1 (UTC 2008-12-04)
Аудио
Идентификатор : 1
Формат : MPEG Audio
Версия формата : Version 1
Профиль формата : Layer 3
Режим : Joint stereo
Идентификатор кодека : 55
Идентификатор кодека/Подсказка : MP3
Продолжительность : 55 м.
Вид битрейта : Постоянный
Битрейт : 256 Кбит/сек
Канал(ы) : 2 канала(ов)
Частота : 44,1 КГц
Метод сжатия : С потерями
Задержка видео : 40 мс.
Размер потока : 101 Мбайт (14%)
Выравнивание : Соединение по промежуткам
Продолжительность промежутка : 26 мс. (0,65 видеокадр)
Время предзагрузки промежутка : 522 ms
Библиотека кодирования : LAME3.98


Download / Скачать

Хотите скачать бесплатно? Зарегистрируйтесь на сайте (ссылка на регистрацию). Pirat.ca - самый быстрый торрент трекер в рунете!

Как скачивать  ·   Что такое торрент  ·   Рейтинг и ограничения



Последний раз редактировалось: Степаныч (2011-11-07 10:03), всего редактировалось 1 раз

Krukov_Aleksey

Корсар

Пост 01-Ноя-2011 13:22 (спустя 2 дня 2 часа)

[Q] 

Я тоже так умею
[Профиль]  [ЛС] 

melodia

Лоцман

Пост 02-Июл-2013 18:55 (спустя 1 год 8 месяцев)

[Q] 

А где скорость, где раздача?... cv

_________________
[Профиль]  [ЛС] 
Показать сообщения:    
Ответить на тему

Текущее время: Сегодня 02:10

Часовой пояс: GMT + 4



Вы не можете начинать темы
Вы не можете отвечать на сообщения
Вы не можете редактировать свои сообщения
Вы не можете удалять свои сообщения
Вы не можете голосовать в опросах
Вы не можете прикреплять файлы к сообщениям
Вы не можете скачивать файлы

▼ Вниз