ML
     
  Уважаемый Гость!
Вы можете поддержать проект и зарегистрироваться у наших партнеров - онлайн-стратегия MyLands. При регистрации в игре Вы получите код, который сможете активировать после регистрации на pirat.ca и получить 1000 дублонов.

Ваш код:
0ea1bf889af42fca5f67d0a391efb3400850ad7c
 
     

Там, где была война (Виталий Дугин) [2010 г., документальный, TVRip] (Владимир Виноградов, Леонид Канфер)

Ответить на тему
 
Автор
Сообщение

Пост 04-Мар-2012 17:02

[Q] 

Амангельды

Там, где была война Страна: Россия
Студия: Рен-ТВ
Жанр: Документальный.
Дата эфира: 23.11.2010
Продолжительность: 00:23:15
Субтитры: Нет
Режиссер: Виталий Дугин.
Автор репортажа: Леонид Канфер.
Исполняют: Владимир Виноградов, Леонид Канфер.
Описание: Майор в отставке, участник боевых действий в Чечне Владимир Виноградов вновь попадает в Грозный спустя 10 лет, но на сей раз по приглашению своего друга-журналиста Леонида Канфера...

Качество видео: TVRip
Формат видео: AVI
Видео кодек: DivX 5
Аудио кодек: MP3
Видео: 720x540, 25 fps, XviD build 64 ~980 kbps avg
Аудио: 48,0 kHz, MPEG Layer 3, 2 ch, ~128.00 kbps avg
Формат : AVI
Формат/Информация : Audio Video Interleave
Размер файла : 186 Мбайт
Продолжительность : 23 м.
Общий поток : 1118 Кбит/сек
Библиотека кодирования : VirtualDub-MPEG2 build 24600/release
Видео
Идентификатор : 0
Формат : MPEG-4 Visual
Параметр BVOP формата : 1
Параметр QPel формата : Нет
Параметр GMC формата : Без точки перехода
Параметр матрицы формата : Default (H.263)
Режим смешивания : Сжатый битовый поток
Идентификатор кодека : DX50
Идентификатор кодека/Подсказка : DivX 5
Продолжительность : 23 м.
Битрейт : 980 Кбит/сек
Ширина : 720 пикс.
Высота : 540 пикс.
Соотношение сторон : 4:3
Частота кадров : 25,000 кадр/сек
Цветовое пространство : YUV
Подвыборка цветности : 4:2:0
Битовая глубина : 8 бит
Тип развёртки : Прогрессивная
Метод сжатия : С потерями
Бит/(Пиксели*Кадры) : 0.101
Размер потока : 163 Мбайт (88%)
Библиотека кодирования : DivX 6.8.5 (UTC 2009-08-20)
Аудио
Идентификатор : 1
Формат : MPEG Audio
Версия формата : Version 1
Профиль формата : Layer 3
Режим : Joint stereo
Расширение режима : MS Stereo
Идентификатор кодека : 55
Идентификатор кодека/Подсказка : MP3
Продолжительность : 23 м.
Вид битрейта : Постоянный
Битрейт : 128 Кбит/сек
Канал(ы) : 2 канала(ов)
Частота : 48,0 КГц
Метод сжатия : С потерями
Размер потока : 21,3 Мбайт (11%)
Выравнивание : Разделение по промежуткам
Продолжительность промежутка : 40 мс. (1,00 видеокадр)
Время предзагрузки промежутка : 500 ms
"Та еще победа..."
Как я поехал на войну...
Как я ездил в Москву...
Download / Скачать

Хотите скачать бесплатно? Зарегистрируйтесь на сайте (ссылка на регистрацию). Pirat.ca - самый быстрый торрент трекер в рунете!

Как скачивать  ·   Что такое торрент  ·   Рейтинг и ограничения



Последний раз редактировалось: Амангельды (2012-03-05 23:10), всего редактировалось 3 раз(а)

Zha-pol

Легенда

Пост 04-Мар-2012 21:17 (спустя 4 часа)

[Q] 

Как я ехал на войну , мне очень нравилось))

_________________
[Профиль]  [ЛС] 

Амангельды ®

35490

Пост 04-Мар-2012 21:18 (спустя 1 минута)

[Q] 

Zha-pol, здесь не так смешно, сколь горько... az

_________________

Товарищ, верь, пройдет она,
Так называемая гласность.
И вот тогда госбезопасность
Припомнит ваши имена
Раздачи от Амангельды - ТЫНЦ
[Профиль]  [ЛС] 

Zha-pol

Легенда

Пост 04-Мар-2012 21:23 (спустя 4 минуты)

[Q] 

А скорость 3 килобита(

_________________
[Профиль]  [ЛС] 

Амангельды ®

35490

Пост 04-Мар-2012 21:25 (спустя 2 минуты)

[Q] 

Zha-pol, все раздастся и воздастся... Короче, все будет ок...
Как на выборах... И на войне... Наши всегда победят...

_________________

Товарищ, верь, пройдет она,
Так называемая гласность.
И вот тогда госбезопасность
Припомнит ваши имена
Раздачи от Амангельды - ТЫНЦ
[Профиль]  [ЛС] 

Zha-pol

Легенда

Пост 04-Мар-2012 21:28 (спустя 3 минуты)

[Q] 

Амангельды, Я и не сомневаюсь)))

_________________
[Профиль]  [ЛС] 

Wolf111

57084

Пост 15-Янв-2013 17:57 (спустя 10 месяцев 10 дней)

[Q] 

Помогу с раздачей
[Профиль]  [ЛС] 

prohodilmimo

Корсар

24

Пост 08-Апр-2013 17:40 (спустя 2 месяца 23 дня)

[Q] 

Кто тут помогет с раздачей? Wolfчик111 ты где???
[Профиль]  [ЛС] 

prohodilmimo

Корсар

24

Пост 08-Апр-2013 23:11 (спустя 5 часов)

[Q] 

скачал сам- помогу другим \ по мере сил\ aa
[Профиль]  [ЛС] 

Амангельды ®

35490

Пост 08-Апр-2013 23:19 (спустя 7 минут)

[Q] 

prohodilmimo, наши люди!!! az

_________________

Товарищ, верь, пройдет она,
Так называемая гласность.
И вот тогда госбезопасность
Припомнит ваши имена
Раздачи от Амангельды - ТЫНЦ
[Профиль]  [ЛС] 

prohodilmimo

Корсар

24

Пост 23-Апр-2013 22:57 (спустя 14 дней)

[Q] 

az
[Профиль]  [ЛС] 

prohodilmimo

Корсар

24

Пост 23-Апр-2013 22:59 (спустя 2 минуты)

[Q] 

ФИЛЬМ ОЧЕНЬ ПОЗИТИВНЫЙ -ВОТ КАК ЛЮДИ СЕБЯ УВАЖАЮТ. А МЫ СНОВА ДО ЛУЧШИХ ДНЕЙ.
[Профиль]  [ЛС] 
Показать сообщения:    
Ответить на тему

Текущее время: Сегодня 00:37

Часовой пояс: GMT + 4



Вы не можете начинать темы
Вы не можете отвечать на сообщения
Вы не можете редактировать свои сообщения
Вы не можете удалять свои сообщения
Вы не можете голосовать в опросах
Вы не можете прикреплять файлы к сообщениям
Вы не можете скачивать файлы

▼ Вниз