ML
     
  Уважаемый Гость!
Вы можете поддержать проект и зарегистрироваться у наших партнеров - онлайн-стратегия MyLands. При регистрации в игре Вы получите код, который сможете активировать после регистрации на pirat.ca и получить 1000 дублонов.

Ваш код:
822959f93c00d34653763d5bbf9ee9a7134af98a
 
     

Век эгоизма. Часть 3 – В твоей голове сидит полицейский, которого нужно уничтожить / The Century of the Self. Part 3 - There is a Policeman Inside All Our Heads: He Must Be Destroyed (Адам Кёртис) [2002 г., документальный, TVRip] MVO [проект Zaryad]

Ответить на тему
 
Автор
Сообщение

Пост 10-Мар-2012 04:32

[Q] 

memorro7

Штурман

Век эгоизма. Часть 3 – В твоей голове сидит полицейский, которого нужно уничтожить / The Century of the Self. Part 3 - There is a Policeman Inside All Our Heads: He Must Be Destroyed
Год выпуска: 2002
Производство: Великобритания
Жанр: документальный
Продолжительность серии: 00:58:36
Перевод: Профессиональный (одноголосый, закадровый)
Автор(ы) перевода: проект Zaryad
Субтитры: отсутствуют
Режиссер: Адам Кёртис
В ролях: Вернер Эрхард
Мартин С. Бергманн
Тони Блэр
Билл Клинтон
Адам Кертис
Роберт Рич
Вильгельм Райх
Описание: Это сериал о том, как идеи Зигмунда Фрейда о бессознательном были использованы власть имущими для управления поведением масс в эпоху демократии.
Идеи Фрейда распространились по всей Америке в 50-х годах двадцатого века. Они распространялись благодаря усилиям дочери Фрейда Анны и его племянника Эдварда Бернейса. Он сделал теории Фрейда центральным стержнем рекламы и маркетинга. Оба они верили, что в основе каждого человеческого существа находится скрытое иррациональное начало, которое необходимо контролировать – как для блага самого человека, так и ради стабильности общества.
Но оппоненты, которые говорили, что фрейдисты неправы в своих представлениях о человеческой природе, были уже готовы отстранить наследников Фрейда от власти. Внутреннюю сущность человека не надо подавлять и контролировать, ее надо поощрять к самовыражению. Благодаря этому появится новый тип сильной личности и лучшее общество.
Но результаты этой революции оказались совершенно противоположными. Они привели к появлению замкнутых на себя, уязвимых и, прежде всего, жадных людей. Людей, подверженных манипуляциям со стороны бизнеса и политики в гораздо большей мере, чем когда-либо ранее.
Стоящие у власти теперь будут контролировать сознание людей, не подавляя их бессознательное начало, а потакая его бесконечным желаниям.
Релиз:
Источник/Качество: TVRip
Формат: AVI
Видео кодек: DivX
Аудио кодек: MP3
Видео: 640x480 (1.33:1), 29.970 fps, DivX Codec 6.8.5/6.9.1 ~749 kbps avg, 0.08 bit/pixel
Аудио: 48 kHz, MPEG Layer 3, 1 ch, ~64.00 kbps avg
FFormat : AVI
Format/Info : Audio Video Interleave
File size : 346 MiB
Duration : 58mn 36s
Overall bit rate : 825 Kbps
Writing application : VirtualDubMod 1.5.10.2 (build 2542/release)
Writing library : VirtualDubMod build 2542/release
Video
ID : 0
Format : MPEG-4 Visual
Format settings, BVOP : 3
Format settings, QPel : No
Format settings, GMC : No warppoints
Format settings, Matrix : Default (H.263)
Muxing mode : Packed bitstream
Codec ID : DX50
Codec ID/Hint : DivX 5
Duration : 58mn 36s
Bit rate : 749 Kbps
Width : 640 pixels
Height : 480 pixels
Display aspect ratio : 4:3
Frame rate : 29.970 fps
Color space : YUV
Chroma subsampling : 4:2:0
Bit depth : 8 bits
Scan type : Progressive
Compression mode : Lossy
Bits/(Pixel*Frame) : 0.081
Stream size : 314 MiB (91%)
Writing library : DivX 6.8.5 (UTC 2009-08-20)
Audio
ID : 1
Format : MPEG Audio
Format version : Version 1
Format profile : Layer 3
Codec ID : 55
Codec ID/Hint : MP3
Duration : 58mn 35s
Bit rate mode : Constant
Bit rate : 64.0 Kbps
Channel(s) : 1 channel
Sampling rate : 48.0 KHz
Compression mode : Lossy
Stream size : 26.8 MiB (8%)
Alignment : Split accross interleaves
Interleave, duration : 33 ms (1.00 video frame)
Interleave, preload duration : 500 ms
Смотрите также:
Библия 21 века DVD-Video №1 - Новый мировой порядок
Высшая Социология (Григорий Климов)
Князь Мира Сего - Григорий Климов
Психиатрия индустрия смерти
Download / Скачать

Хотите скачать бесплатно? Зарегистрируйтесь на сайте (ссылка на регистрацию). Pirat.ca - самый быстрый торрент трекер в рунете!

Как скачивать  ·   Что такое торрент  ·   Рейтинг и ограничения

rrtryytyew4

Морской Волк

32

Пост 10-Мар-2012 08:12 (спустя 3 часа)

[Q] 

хороший фильм
[Профиль]  [ЛС] 
Показать сообщения:    
Ответить на тему

Текущее время: Сегодня 05:58

Часовой пояс: GMT + 4



Вы не можете начинать темы
Вы не можете отвечать на сообщения
Вы не можете редактировать свои сообщения
Вы не можете удалять свои сообщения
Вы не можете голосовать в опросах
Вы не можете прикреплять файлы к сообщениям
Вы не можете скачивать файлы

▼ Вниз