ML
     
  Уважаемый Гость!
Вы можете поддержать проект и зарегистрироваться у наших партнеров - онлайн-стратегия MyLands. При регистрации в игре Вы получите код, который сможете активировать после регистрации на pirat.ca и получить 1000 дублонов.

Ваш код:
47bfc18b89c74e4ae0d974e9b6943639e2bff08e
 
     

Малыши / Дети / Babies / Bébé(s) (Томас Бальмес / Thomas Balmès) [2010 г., Документальный, семейный, BDRip] + (Bonus Soundtrack)

Ответить на тему
 
Автор
Сообщение

Пост 17-Мар-2012 21:20

[Q] 

UcrusPazzo

Малыши / Дети / Babies / Bébé(s)«Каждую секунду в мире рождается 4 малыша. Познакомьтесь с ними.» -Год выпуска: 2010
Мировая премьера: 7 мая 2010
Российская премьера: 3 июня 2010, «Вольга»
Дата выхода DVD: 7 октября 2010, «Вольга»
Производство: Франция, Canal+, Chez Wam, Studio Canal
Жанр: Документальный, семейный
Продолжительность серии: 01:19:01
Перевод: Не требуется
Субтитры: английские, UTF-8-Режиссер: Томас Бальмес / Thomas Balmès
Сценарий: Ален Шаба, Томас Бальмес
Продюсер: Амандин Било, Ален Шаба, Кристин Руксель
Оператор: Жером Альмерас, Фрейзер Брэдшоу, Стивен Петивилль
Композитор: Бруно Куле
Художник: Джилл Кулон
Монтаж: Рейнольд Бертран, Крэйг МакКэй
Сборы в США: $7 320 323
Сборы в мире: + $2 175 039 = $9 495 362
Сборы в России: $151 337
DVD в США: $364 855-В ролях: Мари из Японии, Байярджаргал из Монголии, Хетти из США и Понихао из Намибии.-Описание: Автор фильма — обладатель множества премий в области документального кино. Изо дня в день в течение 18 месяцев в четырех странах мира камера Томаса Бальмеса беспристрастно наблюдает за четырьмя младенцами с момента их первых шагов. В картине нет ни одной постановочной сцены. Насколько тщательным и разработанным был подход к съемке, настолько удивительным и впечатляющим оказался результат. Зрителям предстоит пережить чудесное приключение и открыть мир вместе с Мари из Японии, Байярджаргал из Монголии, Хетти из США и Понихао из Намибии.-Источник/Качество: BDRip
Формат: MKV
Видео кодек: AVC
Аудио кодек: DTS
Видео: English; 6410 Кбит/сек; 1280*688 (1,860); в 23,976 кадра/сек; AVC (Header stripping) ([email protected]) (CABAC / 5 Ref Frames)
Аудио: 1510 Кбит/сек; 48,0 КГц; 24 бит; 6 каналов; DTS (Header stripping)
Общее
Уникальный идентификатор : 213849108673373940596838545938989960406 (0xA0E1D7172E38708BA346E38C5AA7CCD6)
Формат : Matroska
Версия формата : Version 2
Размер файла : 4,37 Гбайт
Продолжительность : 1 ч. 19 м.
Общий поток : 7908 Кбит/сек
Дата кодирования : UTC 2010-09-21 00:20:14
Программа кодирования : mkvmerge v4.2.0 ('No Talking') built on Jul 28 2010 18:38:23
Библиотека кодирования : libebml v1.0.0 + libmatroska v1.0.0
Видео
Идентификатор : 1
Формат : AVC
Формат/Информация : Advanced Video Codec
Профиль формата : [email protected]
Параметр CABAC формата : Да
Параметр ReFrames формата : 5 кадров
Режим смешивания : Header stripping
Идентификатор кодека : V_MPEG4/ISO/AVC
Продолжительность : 1 ч. 19 м.
Битрейт : 6410 Кбит/сек
Ширина : 1280 пикселей
Высота : 688 пикселей
Соотношение сторон : 1,860
Частота кадров : 23,976 кадра/сек
Цветовое пространство : YUV
Субдискретизация насыщенности : 4:2:0
Битовая глубина : 8 бит
Тип развёртки : Прогрессивная
Бит/(Пиксели*Кадры) : 0.304
Размер потока : 3,45 Гбайт (79%)
Библиотека кодирования : x264 core 105 r1724 b02df7b
Настройки программы : cabac=1 / ref=5 / deblock=1:0:0 / analyse=0x3:0x113 / me=umh / subme=7 / psy=1 / psy_rd=1.00:0.00 / mixed_ref=1 / me_range=16 / chroma_me=1 / trellis=1 / 8x8dct=1 / cqm=0 / deadzone=21,11 / fast_pskip=0 / chroma_qp_offset=-2 / threads=12 / sliced_threads=0 / nr=0 / decimate=1 / interlaced=0 / constrained_intra=0 / bframes=3 / b_pyramid=2 / b_adapt=1 / b_bias=0 / direct=1 / weightb=1 / open_gop=0 / weightp=2 / keyint=250 / keyint_min=23 / scenecut=40 / intra_refresh=0 / rc_lookahead=40 / rc=2pass / mbtree=1 / bitrate=6410 / ratetol=1.0 / qcomp=0.60 / qpmin=10 / qpmax=51 / qpstep=4 / cplxblur=20.0 / qblur=0.5 / ip_ratio=1.40 / aq=1:1.00
Язык : English
Default : Да
Forced : Нет
Аудио
Идентификатор : 2
Формат : DTS
Формат/Информация : Digital Theater Systems
Режим смешивания : Header stripping
Идентификатор кодека : A_DTS
Продолжительность : 1 ч. 19 м.
Вид битрейта : Постоянный
Битрейт : 1510 Кбит/сек
Каналы : 6 каналов
Расположение каналов : Front: L C R, Side: L R, LFE
Частота : 48,0 КГц
Битовая глубина : 24 бит
Метод сжатия : С потерями
Размер потока : 853 Мбайт (19%)
Default : Да
Forced : Нет
Текст
Идентификатор : 3
Формат : UTF-8
Идентификатор кодека : S_TEXT/UTF8
Идентификатор кодека/Информация : UTF-8 Plain Text
Язык : English
Default : Нет
Forced : Нет
Офф. сайт: - http://www.focusfeatures.com/focusfeatures/film/babies/-Треклист:
01. The Perpetual Self, or "What Would Saul Alinsky do?" - Sufjan Stevens
02. Baby
03. Les Bebes
04. Hattie
05. Moulins
06. Marie
07. Eveil Marie
08. Les Chutes
09. Le Jeu des Bebes
10. Berceuse
11. Premiers Pas
12. La Toilette des Bebes
13. Sommeil de Hattie
14. Bayarjagal
15. Reverie
16. Ponijao
17. La Marche des Bebes
18. Les Cheveux
Download / Скачать

Хотите скачать бесплатно? Зарегистрируйтесь на сайте (ссылка на регистрацию). Pirat.ca - самый быстрый торрент трекер в рунете!

Как скачивать  ·   Что такое торрент  ·   Рейтинг и ограничения



Последний раз редактировалось: UcrusPazzo (2013-05-19 17:11), всего редактировалось 2 раз(а)

me14

999

Пост 17-Мар-2012 22:03 (спустя 42 минуты)

[Q] 


_________________
Если вы все еще не забанены - это не ваша заслуга, а модераторская недоработка.
[Профиль]  [ЛС] 

baranka

Лоцман

Пост 08-Апр-2012 20:46 (спустя 21 день)

[Q] 

Пожалуйста, дайте скорости, пожалуйста-пожалуйста-пожалуйста!
[Профиль]  [ЛС] 

gofi12

Лоцман

Пост 18-Май-2012 14:01 (спустя 1 месяц 9 дней)

[Q] 

Пожалуйста, дайте скорости, пожалуйста-пожалуйста-пожалуйста!
[Профиль]  [ЛС] 
Показать сообщения:    
Ответить на тему

Текущее время: Сегодня 07:04

Часовой пояс: GMT + 4



Вы не можете начинать темы
Вы не можете отвечать на сообщения
Вы не можете редактировать свои сообщения
Вы не можете удалять свои сообщения
Вы не можете голосовать в опросах
Вы не можете прикреплять файлы к сообщениям
Вы не можете скачивать файлы

▼ Вниз