ML
     
  Уважаемый Гость!
Вы можете поддержать проект и зарегистрироваться у наших партнеров - онлайн-стратегия MyLands. При регистрации в игре Вы получите код, который сможете активировать после регистрации на pirat.ca и получить 1000 дублонов.

Ваш код:
c3360d664ceb84802c84b88ed062a5d134e2ba97
 
     

Странное дело. Назад в будущее (РЕН ТВ) [2012 г., Документальный, SATRip]

Ответить на тему
 
Автор
Сообщение

Пост 17-Мар-2012 21:57

[Q] 

me14

Странное дело. Назад в будущее
Год выпуска: 2012
Российская премьера: 21:00, 16.03.2012
Производство: Россия
Жанр: Документальный
Продолжительность серии: 00:48:27
Перевод: Не требуется
Субтитры: отсутствуют
Режиссер: РЕН ТВ
Описание: Некоторые ученые, ссылаясь на вполне конкретные, но не поддающиеся объяснению факты, доказывают, что путешествия во времени возможны. А значит, создав машину времени, можно вернуться в прошлое, для того, что бы изменить будущее...-
Источник/Качество: SATRip
Формат: AVI
Видео кодек: XviD
Аудио кодек: MP3
Видео: 704x400, 16:9, 25.000 fps, XviD, 1396 Kbps
Аудио: 48.0 KHz, MP3, 2 ch, 126 Kbps
Формат : AVI
Формат/Информация : Audio Video Interleave
Размер файла : 532 MiB
Продолжительность : 48mn 27s
Общий поток : 1 535 Kbps
Библиотека кодирования : VirtualDub build 32507/release
Video
Идентификатор : 0
Формат : MPEG-4 Visual
Профиль формата : Advanced [email protected]
Параметр BVOP формата : 2
Параметр QPel формата : No
Параметр GMC формата : No warppoints
Параметр матрицы формата : Default (H.263)
Режим смешивания : Packed bitstream
Идентификатор кодека : XVID
Идентификатор кодека/Подсказка : XviD
Продолжительность : 48mn 27s
Битрейт : 1 398 Kbps
Ширина : 704 pixels
Высота : 400 pixels
Соотношение сторон : 16:9
Частота кадров : 25.000 fps
Цветовое пространство : YUV
Подвыборка цветности : 4:2:0
Битовая глубина : 8 bits
Тип развёртки : Progressive
Метод сжатия : Lossy
Бит/(Пиксели*Кадры) : 0.199
Размер потока : 484 MiB (91%)
Библиотека кодирования : XviD 64
Audio
Идентификатор : 1
Формат : MPEG Audio
Версия формата : Version 1
Профиль формата : Layer 3
Режим : Joint stereo
Расширение режима : MS Stereo
Идентификатор кодека : 55
Идентификатор кодека/Подсказка : MP3
Продолжительность : 48mn 27s
Вид битрейта : Constant
Битрейт : 128 Kbps
Канал(ы) : 2 channels
Частота : 48.0 KHz
Метод сжатия : Lossy
Размер потока : 44.4 MiB (8%)
Выравнивание : Split accross interleaves
Продолжительность промежутка : 40 ms (1.00 video frame)
Время предзагрузки промежутка : 1000 ms
-
Download / Скачать

Хотите скачать бесплатно? Зарегистрируйтесь на сайте (ссылка на регистрацию). Pirat.ca - самый быстрый торрент трекер в рунете!

Как скачивать  ·   Что такое торрент  ·   Рейтинг и ограничения

cergo

Гроза морей

20061

Пост 18-Мар-2012 12:38 (спустя 14 часов)

[Q] 

... посмотрим aa
[Профиль]  [ЛС] 

alekso73

1083

Пост 11-Апр-2012 15:15 (спустя 24 дня)

[Q] 

Вот это замутили!!!!Машина времени! ai
[Профиль]  [ЛС] 

lis777

Корсар

Пост 19-Апр-2012 19:13 (спустя 8 дней)

[Q] 

раздавать буем
[Профиль]  [ЛС] 
Показать сообщения:    
Ответить на тему

Текущее время: Сегодня 10:07

Часовой пояс: GMT + 4



Вы не можете начинать темы
Вы не можете отвечать на сообщения
Вы не можете редактировать свои сообщения
Вы не можете удалять свои сообщения
Вы не можете голосовать в опросах
Вы не можете прикреплять файлы к сообщениям
Вы не можете скачивать файлы

▼ Вниз