ML
     
  Уважаемый Гость!
Вы можете поддержать проект и зарегистрироваться у наших партнеров - онлайн-стратегия MyLands. При регистрации в игре Вы получите код, который сможете активировать после регистрации на pirat.ca и получить 1000 дублонов.

Ваш код:
8b752b428cf60a012c159dcae592cd1392170115
 
     

Глубокий сон / Deep dream lounge / Глубокий космос/ Deep space explorer [2010 г., Релакс, музыка, анимация, BDRemux]

Ответить на тему

Ещё выложить подобное?

Да   92%  92%  [ 13 ]
Нет   7%  7%  [ 1 ]

Всего проголосовало : 14

 
Автор
Сообщение

Пост 30-Окт-2011 15:01

[Q] 

VLSAV

Штурман

Глубокий сон / Deep dream lounge
Год выпуска: 2010
Жанр: Релакс, музыка, анимация
Продолжительность: 01:04:00
Перевод: Не требуется
Описание: Необыкновенное зрелище в совершенном, кристальном HD-качестве, специально созданное для этого видео, унесёт вас в фантастический виртуальный мир форм и красок. Наслаждайтесь эксклюзивным неторопливым видеорядом и объёмным звучанием, выбирая спокойную, расслабляющую музыку или прозрачную атмосферу обволакивающих звуков.
Перетекающие формы, яркие цвета, фрактальные миры, изящные узоры, воображаемый клубный свет, сказочные ощущения и расслабляющие картины движения создадут в вашем доме экстравагантную атмосферу особого, изысканного вкуса.
Качество: BDRemux
Формат: MKV
Видео кодек: MPEG2
Аудио кодек: AC3
Видео: MPEG2, 1920x1080i50, 30mbps
Аудио: AC3 5.1, 48kHz, 16bits, 512kbps (easy lounge tunes,deep atmosphere)
Сэмпл: http://multi-up.com/446707




Complete name : Deep dream lounge.1080i.mkv
Format : Matroska
File size : 13.9 GiB
Duration : 1h 4mn
Overall bit rate : 31.0 Mbps
Writing application : mkvmerge v3.4.0 ('Rapunzel') built on May 15 2010 09:38:20
Writing library : libebml v0.8.0 + libmatroska v0.9.0
Video
ID : 1
Format : MPEG Video
Format version : Version 2
Format profile : [email protected]
Format settings, BVOP : No
Format settings, Matrix : Default
Codec ID : V_MPEG2
Codec ID/Info : MPEG 1 or 2 Video
Duration : 1h 4mn
Bit rate mode : Constant
Bit rate : 30.0 Mbps
Width : 1 920 pixels
Height : 1 080 pixels
Display aspect ratio : 16:9
Frame rate : 25.000 fps
Color space : YUV
Chroma subsampling : 4:2:0
Bit depth : 8 bits
Scan type : Interlaced
Scan order : Top Field First
Compression mode : Lossy
Bits/(Pixel*Frame) : 0.579
Stream size : 13.1 GiB (95%)
Title : Deep dream lounge
Audio #1
ID : 2
Format : AC-3
Format/Info : Audio Coding 3
Mode extension : CM (complete main)
Codec ID : A_AC3
Duration : 1h 4mn
Bit rate mode : Constant
Bit rate : 512 Kbps
Channel(s) : 6 channels
Channel positions : Front: L C R, Side: L R, LFE
Sampling rate : 48.0 KHz
Bit depth : 16 bits
Compression mode : Lossy
Delay relative to video : -80ms
Stream size : 234 MiB (2%)
Title : Easy lounge tunes
Audio #2
ID : 3
Format : AC-3
Format/Info : Audio Coding 3
Mode extension : CM (complete main)
Codec ID : A_AC3
Duration : 1h 4mn
Bit rate mode : Constant
Bit rate : 512 Kbps
Channel(s) : 6 channels
Channel positions : Front: L C R, Side: L R, LFE
Sampling rate : 48.0 KHz
Bit depth : 16 bits
Compression mode : Lossy
Delay relative to video : -80ms
Stream size : 234 MiB (2%)
Title : Deep atmosphere
Menu
00:00:00.000 : Fractal dreams
00:14:59.860 : Floating lights
00:29:59.844 : Art lounge
00:39:59.940 : Moving club beams
00:49:59.821 : Future lounge
-Глубокий космос/ Deep space explorer
Год выпуска: 2010
Жанр: Релакс,музыка,анимация
Продолжительность: 00:59:26
Перевод: Не требуется
Описание: Тщательно подготовленная и составленная, данная видеопрограмма позволит вам перенестись в захватывающее межгалактическое путешествие посредством нескольких эксклюзивных видео эпизодов в изумительном качестве высокой чёткости - выбирая музыкальное оформление "глубокое погружение в космос" с объёмным 5.1-звуком, эксклюзивно записанного для этого издания, или же "окружение космического пространства".
Вы совершите путешествие через межгалактические тоннели и туманности космических скоплений. Погрузитесь в глубины космического пространства, иных миров, неизвестных планет, параллельных вселенных с непостижимой игрой света и увидите рождение новых солнечных систем.
Качество: BDRemux
Формат: MKV
Видео кодек: MPEG2
Аудио кодек: AC3
Видео: MPEG2, 1920x1080i50, 30mbps
Аудио: AC3 5.1, 48kHz, 16bits, 512kbps (easy lounge tunes,deep atmosphere)
Сэмпл: http://multi-up.com/446712




Complete name : Deep space explorer.1080i.mkv
Format : Matroska
File size : 12.9 GiB
Duration : 59mn 26s
Overall bit rate : 31.0 Mbps
Writing application : mkvmerge v3.4.0 ('Rapunzel') built on May 15 2010 09:38:20
Writing library : libebml v0.8.0 + libmatroska v0.9.0
Video
ID : 1
Format : MPEG Video
Format version : Version 2
Format profile : [email protected]
Format settings, BVOP : No
Format settings, Matrix : Default
Codec ID : V_MPEG2
Codec ID/Info : MPEG 1 or 2 Video
Duration : 59mn 26s
Bit rate mode : Constant
Bit rate : 30.0 Mbps
Width : 1 920 pixels
Height : 1 080 pixels
Display aspect ratio : 16:9
Frame rate : 25.000 fps
Color space : YUV
Chroma subsampling : 4:2:0
Bit depth : 8 bits
Scan type : Interlaced
Scan order : Top Field First
Compression mode : Lossy
Bits/(Pixel*Frame) : 0.579
Stream size : 12.2 GiB (95%)
Title : Deep space explorer
Audio #1
ID : 2
Format : AC-3
Format/Info : Audio Coding 3
Mode extension : CM (complete main)
Codec ID : A_AC3
Duration : 59mn 26s
Bit rate mode : Constant
Bit rate : 512 Kbps
Channel(s) : 6 channels
Channel positions : Front: L C R, Side: L R, LFE
Sampling rate : 48.0 KHz
Bit depth : 16 bits
Compression mode : Lossy
Delay relative to video : -80ms
Stream size : 218 MiB (2%)
Title : deep space lounge
Audio #2
ID : 3
Format : AC-3
Format/Info : Audio Coding 3
Mode extension : CM (complete main)
Codec ID : A_AC3
Duration : 59mn 26s
Bit rate mode : Constant
Bit rate : 512 Kbps
Channel(s) : 6 channels
Channel positions : Front: L C R, Side: L R, LFE
Sampling rate : 48.0 KHz
Bit depth : 16 bits
Compression mode : Lossy
Delay relative to video : -80ms
Stream size : 218 MiB (2%)
Title : outer space atmosphere
Menu
00:00:00.000 : Galactic explorer
00:21:29.938 : Beyond frontiers
00:45:29.971 : Distant worlds
Download / Скачать

Хотите скачать бесплатно? Зарегистрируйтесь на сайте (ссылка на регистрацию). Pirat.ca - самый быстрый торрент трекер в рунете!

Как скачивать  ·   Что такое торрент  ·   Рейтинг и ограничения



Последний раз редактировалось: VLSAV (2011-11-06 22:21), всего редактировалось 2 раз(а)

VLSAV ®

Штурман

18

Пост 31-Окт-2011 07:29 (спустя 16 часов)

[Q] 

Включаем и балдеем )))

_________________
[Профиль]  [ЛС] 

Seva78

1517

Пост 31-Окт-2011 21:59 (спустя 14 часов)

[Q] 

Скрины симпатичные,за раздачу благодарность,жаль сухой закон на корабле,бочёнки с ромом запретили:))

_________________
[Профиль]  [ЛС] 

Darthlexx

Штурман

9

Пост 31-Окт-2011 22:02 (спустя 3 минуты)

[Q] 

фракталчики
[Профиль]  [ЛС] 

UcrusPazzo

7670

Пост 01-Ноя-2011 00:22 (спустя 2 часа 20 минут)

[Q] 

Ещё выложить подобное?
Канешно!

_________________
[Профиль]  [ЛС] 

UcrusPazzo

7670

Пост 25-Янв-2013 00:31 (спустя 1 год 2 месяца)

[Q] 


_________________
[Профиль]  [ЛС] 

casperado555

Лоцман

Пост 17-Мар-2013 22:44 (спустя 1 месяц 23 дня)

[Q] 

помогите скачать!
[Профиль]  [ЛС] 

VLSAV ®

Штурман

18

Пост 01-Апр-2013 19:46 (спустя 14 дней)

[Q] 

Качаем раздавать буду пару дней после 7-9 часов вечера до 6 утра

_________________
[Профиль]  [ЛС] 

maxiknik40

Корсар

Пост 13-Июл-2014 17:15 (спустя 1 год 3 месяца)

[Q] 

Автору респект!!! Спасибо!!! Супер!
[Профиль]  [ЛС] 

AnastasWolf

3475

Пост 22-Авг-2014 23:23 (спустя 1 месяц 9 дней)

[Q] 

Никто так и не смог это скачать...

_________________
[Профиль]  [ЛС] 

motrin

Морской Волк

45

Пост 24-Авг-2014 00:41 (спустя 1 день 1 час)

[Q] 

выкладывай ещё. Спасибо.
[Профиль]  [ЛС] 

VLSAV ®

Штурман

18

Пост 22-Сен-2014 00:36 (спустя 28 дней)

[Q] 

Вы напишите когда кто-то может скачать,я подключу внешний HDD и раздам. (в ЛС)

_________________
[Профиль]  [ЛС] 

UcrusPazzo

7670

Пост 22-Сен-2014 16:54 (спустя 16 часов)

[Q] 

Качайте! AntiZip

_________________
[Профиль]  [ЛС] 

CHARLI2236

1089

Пост 23-Сен-2014 08:48 (спустя 15 часов)

[Q] 

подключусь AntiZip

_________________
[Профиль]  [ЛС] 
Показать сообщения:    
Ответить на тему

Текущее время: Сегодня 06:24

Часовой пояс: GMT + 4



Вы не можете начинать темы
Вы не можете отвечать на сообщения
Вы не можете редактировать свои сообщения
Вы не можете удалять свои сообщения
Вы не можете голосовать в опросах
Вы не можете прикреплять файлы к сообщениям
Вы не можете скачивать файлы

▼ Вниз