ML
     
  Уважаемый Гость!
Вы можете поддержать проект и зарегистрироваться у наших партнеров - онлайн-стратегия MyLands. При регистрации в игре Вы получите код, который сможете активировать после регистрации на pirat.ca и получить 1000 дублонов.

Ваш код:
0ea1bf889af42fca5f67d0a391efb3400850ad7c
 
     

Яндекс - цензура (vsmax2&Искатель) [2011 г., Документальный, HDTV]

Ответить на тему
 
Автор
Сообщение

Пост 31-Окт-2011 08:42

[Q] 

Степаныч

Яндекс - цензура
Год выпуска: 2011
Страна: Россия
Жанр: Документальный
Продолжительность: 00:08:10
Перевод: Не требуется
Режиссер: vsmax2&Искатель
Описание: После многочисленных высказываний о сомнительной избирательности при выводе поисковой информации в яндексе, сам яндекс поспешил заявить о том, что все инциденты были вызваны исключительно по вине медленной индексации изображений. Запаздывание между появлением изображений составляет 6 недель. В этом видео мы рассмотрим примеры, не попадающие под эту категорию.
Качество: HDTV
Формат: AVI
Видео кодек: XviD
Аудио кодек: MP3
Видео: MPEG4, XviD, 1280x720 (16/9), 24.000 fps, 3 404 Kbps (0.154 bit/pixel)
Аудио: MP3, 44.1 KHz, 2 ch, 320 Kbps, CBR
Формат : AVI
Формат/Информация : Audio Video Interleave
Размер файла : 218 Мбайт
Продолжительность : 8 м. 10 с.
Общий поток : 3729 Кбит/сек
Видео
Идентификатор : 0
Формат : MPEG-4 Visual
Профиль формата : [email protected]
Параметр BVOP формата : Нет
Параметр QPel формата : Нет
Параметр GMC формата : Без точки перехода
Параметр матрицы формата : Default (H.263)
Идентификатор кодека : XVID
Идентификатор кодека/Подсказка : XviD
Продолжительность : 8 м. 10 с.
Битрейт : 3404 Кбит/сек
Ширина : 1280 пикс.
Высота : 720 пикс.
Соотношение сторон : 16:9
Частота кадров : 24,000 кадр/сек
Цветовое пространство : YUV
Подвыборка цветности : 4:2:0
Битовая глубина : 8 бит
Тип развёртки : Прогрессивная
Метод сжатия : С потерями
Бит/(Пиксели*Кадры) : 0.154
Размер потока : 199 Мбайт (91%)
Библиотека кодирования : XviD 58
Аудио
Идентификатор : 1
Формат : MPEG Audio
Версия формата : Version 1
Профиль формата : Layer 3
Идентификатор кодека : 55
Идентификатор кодека/Подсказка : MP3
Продолжительность : 8 м. 9 с.
Вид битрейта : Постоянный
Битрейт : 320 Кбит/сек
Канал(ы) : 2 канала(ов)
Частота : 44,1 КГц
Метод сжатия : С потерями
Размер потока : 18,7 Мбайт (9%)
Выравнивание : Разделение по промежуткам
Продолжительность промежутка : 500 мс. (12,01 видеокадров)
Время предзагрузки промежутка : 750 ms



Download / Скачать

Хотите скачать бесплатно? Зарегистрируйтесь на сайте (ссылка на регистрацию). Pirat.ca - самый быстрый торрент трекер в рунете!

Как скачивать  ·   Что такое торрент  ·   Рейтинг и ограничения



Последний раз редактировалось: Степаныч (2011-11-07 10:07), всего редактировалось 1 раз

Luzhok

Легенда

Пост 31-Окт-2011 11:32 (спустя 2 часа 50 минут)

[Q] 

Степаныч, спасибо
[Профиль]  [ЛС] 

rBear

Морской Волк

Пост 31-Окт-2011 16:49 (спустя 5 часов)

[Q] 

Спасибо, украду в коллекцию, надеюсь будет время глянуть ;)

_________________
Ahoi!
[Профиль]  [ЛС] 

Krukov_Aleksey

Корсар

Пост 01-Ноя-2011 13:21 (спустя 20 часов)

[Q] 

Цензура всегда была и будет
[Профиль]  [ЛС] 

alekso73

1082

Пост 03-Ноя-2011 15:12 (спустя 2 дня 1 час)

[Q] 

Спасибо.
[Профиль]  [ЛС] 
Показать сообщения:    
Ответить на тему

Текущее время: Сегодня 00:39

Часовой пояс: GMT + 4



Вы не можете начинать темы
Вы не можете отвечать на сообщения
Вы не можете редактировать свои сообщения
Вы не можете удалять свои сообщения
Вы не можете голосовать в опросах
Вы не можете прикреплять файлы к сообщениям
Вы не можете скачивать файлы

▼ Вниз