ML
     
  Уважаемый Гость!
Вы можете поддержать проект и зарегистрироваться у наших партнеров - онлайн-стратегия MyLands. При регистрации в игре Вы получите код, который сможете активировать после регистрации на pirat.ca и получить 1000 дублонов.

Ваш код:
34514219cfad5497a1822ecc1269bea77988f9aa
 
     

Прибытие поезда на вокзал Ла-Сиоты / L'Arrivée d'un train en gare de la Ciotat (Огюст Люмьер, Луи Люмьер) [1896 г., документальный, DVDRip]

Ответить на тему
 
Автор
Сообщение

Пост 28-Окт-2011 01:47

[Q] 

Призрак

Корсар

Прибытие поезда на вокзал Ла-Сиоты / L'Arrivée d'un train en gare de la Ciotat
Год выпуска: 1896
Страна: Франция
Жанр: документальный
Продолжительность: 00:00:49
Перевод: Не требуется
Режиссер: Огюст Люмьер, Луи Люмьер
В ролях: паровоз и массовка
Описание: «Прибытие поезда на вокзал Ла-Сиоты» (фр. L'Arrivée d'un train en gare de la Ciotat, 1896) — документальный короткометражный фильм; один из первых фильмов, снятых и публично показанных братьями Люмьер. В русскоязычных источниках фильм также упоминается как «Прибытие поезда» и «Прибытие почтового поезда»
IMDB Rating: 7.4/10 981 votes
Кинопоиск
Качество: DVDRip
Формат: AVI
Видео кодек: DivX
Аудио кодек: MPEG Audio
Видео: 720x480, DivX 3 (Low motion), 29,97fps, 937kbps, 0,09b/px
Аудио: MPEG 1 or 2 Audio Layer 3 (MP3), 2ch, 24000Hz, 56kbps
Общее
Формат : AVI
Формат/Информация : Audio Video Interleave
Размер файла : 5,81 Мбайт
Продолжительность : 49 с.
Общий поток : 993 Кбит/сек
Библиотека кодирования : VirtualDub build 15654/release
Видео
Идентификатор : 0
Формат : MPEG-4 Visual
Идентификатор кодека : DIV3
Идентификатор кодека/Подсказка : DivX 3 Low
Продолжительность : 49 с.
Битрейт : 925 Кбит/сек
Ширина : 720 пикселей
Высота : 480 пикселей
Соотношение сторон : 3:2
Частота кадров : 29,970 кадров/сек
Стандарт вещания : NTSC
Цветовое пространство : YUV
Субдискретизация насыщенности : 4:2:0
Битовая глубина : 8 бит
Метод сжатия : С потерями
Бит/(Пиксели*Кадры) : 0.089
Размер потока : 5,41 Мбайт (93%)
Аудио
Идентификатор : 1
Формат : MPEG Audio
Версия формата : Version 2
Профиль формата : Layer 3
Режим : Joint stereo
Расширение режима : Intensity Stereo + MS Stereo
Идентификатор кодека : 55
Идентификатор кодека/Подсказка : MP3
Продолжительность : 49 с.
Вид битрейта : Постоянный
Битрейт : 56,0 Кбит/сек
Каналы : 2 канала
Частота : 24,0 КГц
Метод сжатия : С потерями
Задержка видео : 7 мс.
Размер потока : 335 Кбайт (6%)
Выравнивание : Разделение по промежуткам
Продолжительность промежутка : 34 мс. (1,01 видеокадр)
Время предзагрузки промежутка : 500 мс.
Download / Скачать

Хотите скачать бесплатно? Зарегистрируйтесь на сайте (ссылка на регистрацию). Pirat.ca - самый быстрый торрент трекер в рунете!

Как скачивать  ·   Что такое торрент  ·   Рейтинг и ограничения



Последний раз редактировалось: Призрак (2011-10-30 15:02), всего редактировалось 1 раз

kROLz

Штурман

24

Пост 10-Ноя-2011 22:45 (спустя 13 дней)

[Q] 

это он был в "человек с бульвара капуцинов"? =)
[Профиль]  [ЛС] 
Показать сообщения:    
Ответить на тему

Текущее время: Сегодня 07:53

Часовой пояс: GMT + 4



Вы не можете начинать темы
Вы не можете отвечать на сообщения
Вы не можете редактировать свои сообщения
Вы не можете удалять свои сообщения
Вы не можете голосовать в опросах
Вы не можете прикреплять файлы к сообщениям
Вы не можете скачивать файлы

▼ Вниз