ML
     
  Уважаемый Гость!
Вы можете поддержать проект и зарегистрироваться у наших партнеров - онлайн-стратегия MyLands. При регистрации в игре Вы получите код, который сможете активировать после регистрации на pirat.ca и получить 1000 дублонов.

Ваш код:
a978488e62322cd72e113ab723b8a7fdc10eb9b9
 
     

Зеркала - прорыв в будущее (Осторожно, зеркала! Всевидящие) (Виталий Правдивцев) [2011 г., Документальный, SATRip]

Ответить на тему
 
Автор
Сообщение

Пост 04-Ноя-2011 18:32

[Q] 

Степаныч

Зеркала - прорыв в будущее (Осторожно, зеркала! Всевидящие)
Год выпуска: 2011
Производство: Россия
Жанр: Документальный
Продолжительность: 00:43:59
Режиссер: Виталий Правдивцев
Описание: Легенд и преданий, народных примет и реальных случаев, связанных с загадочными свойствами зеркал, история накопила немало. Сообщения носят поистине глобальный характер: они поступают с разных континентов, принадлежат разным эпохам и культурам. Во многих из них утверждается, что зеркала позволяют увидеть картины прошлого, пространственно удаленного настоящего и даже заглянуть в будущее.
Мистики и прорицатели издревле уверяли, что зеркала, особенно вогнутые, способны наделять человека способностью к ясновидению. С необычными свойствами зеркал сталкиваются и современные ученые: физики, биологи, генетики, психологи...
Ученые из Сибирского отделения Академии медицинских наук СССР в свое время решили разобраться с загадочными свойствами вогнутых зеркал. Опираясь на эксперименты и "теорию времени" ленинградского астрофизика Николая Александровича Козырева, исследователи изготовили зеркала особой конструкции и с конца 1980-х годов приступили к экспериментам по мысленной передаче образов на большие расстояния. В глобальных экспериментах было задействовано двенадцать стран мира и почти пять тысяч участников. Результаты превзошли все ожидания. В большинстве случаев - от 54 до 95 процентов - телепатическая информация принималась абсолютно верно. Эти результаты никак нельзя было отнести к случайным совпадениям…
Почему одной из "передающих точек" был выбран заполярный Диксон? Для чего в экспериментах по телепатии были задействованы потомки древних народов, некогда населявших этот приполярный район? Какое значение имеет "линза" вечной мерзлоты? Имеют ли отношение к сегодняшним экспериментам с зеркалами Козырева секретные экспедиции в Заполярье советских чекистов и Петроградского Института мозга?
Какие тайны вогнутых зеркал унес с собой их крупнейший знаток - ученый тринадцатого века Роджер Бэкон? Как ему удалось заглянуть на сотни лет вперед и предсказать изобретение микроскопа и телескопа, автомобиля и самолета, кораблей, приводимых в действие моторами? Откуда у него задолго до официальных открытий были знания о галактиках и внегалактических туманностях, о строении биологических клеток и процессе образования эмбриона, о составе и действии пороха?
Случайно ли во время экспериментов с зеркалами Козырева над лабораторией регулярно зависали неопознанные летающие объекты? Чем вызывается поле страха вокруг зеркальной установки? Что за светящиеся символы возникают внутри? Что происходит с человеком в зеркалах Козырева? Что такое работа с информационным пространством и как исследователям удается получать информацию не только из далекого прошлого человечества, но и из будущего?
Что представляют собой вогнутые зеркала планетарного масштаба и как они могут действовать на людей и технику? Какие перспективы у вогнутых зеркал в медицине, космонавтике, научном познании мира? И, наконец, почему о сенсационных результатах сибирских и уральских ученых почти ничего не известно?
Источник/Качество: SATRip
Формат: AVI
Видео кодек: XviD
Аудио кодек: MP3
Видео: MPEG4, XviD, 720x448 (1.607), 25.000 fps, 1 759 Kbps (0.218 bit/pixel)
Аудио: MP3, 48.0 KHz, 2 ch, 128 Kbps, CBR
Формат : AVI
Формат/Информация : Audio Video Interleave
Размер файла : 597 Мбайт
Продолжительность : 43 м.
Общий поток : 1896 Кбит/сек
Программа кодирования : VirtualDubMod 1.5.10.2 (build 2540/release)
Библиотека кодирования : VirtualDubMod build 2540/release
Видео
Идентификатор : 0
Формат : MPEG-4 Visual
Профиль формата : Advanced [email protected]
Параметр BVOP формата : 3
Параметр QPel формата : Да
Параметр GMC формата : 3 точки перехода
Параметр матрицы формата : Default (H.263)
Режим смешивания : Сжатый битовый поток
Идентификатор кодека : XVID
Идентификатор кодека/Подсказка : XviD
Продолжительность : 43 м.
Битрейт : 1759 Кбит/сек
Ширина : 720 пикс.
Высота : 448 пикс.
Соотношение сторон : 1,607
Частота кадров : 25,000 кадр/сек
Цветовое пространство : YUV
Подвыборка цветности : 4:2:0
Битовая глубина : 8 бит
Тип развёртки : Прогрессивная
Метод сжатия : С потерями
Бит/(Пиксели*Кадры) : 0.218
Размер потока : 553 Мбайт (93%)
Библиотека кодирования : XviD 1.2.0.dev47 (UTC 2006-11-01)
Аудио
Идентификатор : 1
Формат : MPEG Audio
Версия формата : Version 1
Профиль формата : Layer 3
Идентификатор кодека : 55
Идентификатор кодека/Подсказка : MP3
Продолжительность : 43 м.
Вид битрейта : Постоянный
Битрейт : 128 Кбит/сек
Канал(ы) : 2 канала(ов)
Частота : 48,0 КГц
Метод сжатия : С потерями
Размер потока : 40,3 Мбайт (7%)
Выравнивание : Соединение по промежуткам
Продолжительность промежутка : 40 мс. (1,00 видеокадр)
Время предзагрузки промежутка : 504 ms
Библиотека кодирования : LAME3.97
Настройки программы : -m s -V 4 -q 2 -lowpass 17 -b 128



Download / Скачать

Хотите скачать бесплатно? Зарегистрируйтесь на сайте (ссылка на регистрацию). Pirat.ca - самый быстрый торрент трекер в рунете!

Как скачивать  ·   Что такое торрент  ·   Рейтинг и ограничения



Последний раз редактировалось: Степаныч (2011-11-07 10:01), всего редактировалось 1 раз

C0y0te

1422

Пост 04-Фев-2012 14:37 (спустя 2 месяца 29 дней)

[Q] 

[Профиль]  [ЛС] 

Прораб

Легенда

Пост 31-Мар-2012 17:31 (спустя 1 месяц 27 дней)

[Q] 


_________________
Config comp: CPU-i7-2600K/RAM-32Gb/GF580GTX-1536Mb/RAID0(2 SSD-480GB)+RAID5(8 HDD-20Tb)/Win7 64bit.
[Профиль]  [ЛС] 
Показать сообщения:    
Ответить на тему

Текущее время: Сегодня 22:05

Часовой пояс: GMT + 4



Вы не можете начинать темы
Вы не можете отвечать на сообщения
Вы не можете редактировать свои сообщения
Вы не можете удалять свои сообщения
Вы не можете голосовать в опросах
Вы не можете прикреплять файлы к сообщениям
Вы не можете скачивать файлы

▼ Вниз