ML
     
  Уважаемый Гость!
Вы можете поддержать проект и зарегистрироваться у наших партнеров - онлайн-стратегия MyLands. При регистрации в игре Вы получите код, который сможете активировать после регистрации на pirat.ca и получить 1000 дублонов.

Ваш код:
c89b4b6523eaac3173e9a9c062ac1a19db575961
 
     

Призраки бездны: Титаник / Ghosts of the Abyss (Джеймс Кэмерон / James Cameron) [2003 г., документальный, семейный, BDRip] DVO

Ответить на тему
 
Автор
Сообщение

Пост 18-Мар-2012 07:15

[Q] 

Vlad.84

Штурман

Призраки бездны: Титаник / Ghosts of the Abyss
-Год выпуска: 2003
Мировая премьера: 31 марта 2003
Производство: США (Walden Media)
Жанр: документальный, семейный
Продолжительность серии: 01:31:15
Перевод: Профессиональный (двухголосый, закадровый)
Субтитры: отсутствуют
Режиссер: Джеймс Кэмерон / James Cameron
В ролях: Билл Пэкстон, Др. Джон Бродвотер, Др. Лори Джонстон, Чарльз Пеллегрино, Дон Линч, Кен Маршалл, Джеймс Кэмерон, Майк Кэмерон, Джеффри Н. Ледда
Описание: Джеймс Кэмерон расcказывает подлинную историю легендарного «Титаника». Подготовка к уникальным подводным съемкам велась долгих три года, за которые были собраны новейшие технологические ресурсы и составлена команда высококлассных профессионалов, в которую помимо съемочной группы вошли известные историки и океанологи.- -Источник/Качество: BDRip (источник: / Blu-Ray Disc / 1080p)
Формат: AVI
Видео кодек: XviD
Аудио кодек: AC3
Видео: 704x400 (1.76:1), 24 fps, XviD boild 72 ~1818 kbps avg, 0.27 bit/pixel
Аудио: 48 kHz, AC3 Dolby Digital, 3/2 (L,C,R,l,r) + LFE ch, ~448 kbps avg
General
Complete name : D:\ Prizraki.bezdny.Titanik.2003.BDRip.avi
Format : AVI
Format/Info : Audio Video Interleave
File size : 1.45 GiB
Duration : 1h 31mn
Overall bit rate : 2 274 Kbps
Movie name : Призраки бездны: Титаник (2003) BDRip
Original source form/Name : Documentary
Video
ID : 0
Format : MPEG-4 Visual
Format profile : Advanced [email protected]
Format settings, BVOP : Yes
Format settings, QPel : No
Format settings, GMC : No warppoints
Format settings, Matrix : Custom
Muxing mode : Packed bitstream
Codec ID : XVID
Codec ID/Hint : XviD
Duration : 1h 31mn
Bit rate : 1 818 Kbps
Width : 704 pixels
Height : 400 pixels
Display aspect ratio : 16:9
Frame rate : 24.000 fps
Color space : YUV
Chroma subsampling : 4:2:0
Bit depth : 8 bits
Scan type : Progressive
Bits/(Pixel*Frame) : 0.269
Stream size : 1.16 GiB (80%)
Writing library : XviD 72
Audio
ID : 1
Format : AC-3
Format/Info : Audio Coding 3
Mode extension : CM (complete main)
Codec ID : 2000
Duration : 1h 31mn
Bit rate mode : Constant
Bit rate : 448 Kbps
Channel(s) : 6 channels
Channel positions : Front: L C R, Side: L R, LFE
Sampling rate : 48.0 KHz
Bit depth : 16 bits
Stream size : 292 MiB (20%)
Alignment : Aligned on interleaves
Interleave, duration : 64 ms (1.54 video frames)
Interleave, preload duration : 192 ms
Title : Двуголосый
Download / Скачать

Хотите скачать бесплатно? Зарегистрируйтесь на сайте (ссылка на регистрацию). Pirat.ca - самый быстрый торрент трекер в рунете!

Как скачивать  ·   Что такое торрент  ·   Рейтинг и ограничения



Последний раз редактировалось: Vlad.84 (2012-03-20 20:45), всего редактировалось 3 раз(а)

jumpersky

Легенда

Пост 20-Мар-2012 17:29 (спустя 2 дня 10 часов)

[Q] 

[Профиль]  [ЛС] 

Strix

Флибустьер

Пост 20-Янв-2015 23:26 (спустя 2 года 10 месяцев)

[Q] 

Спасибо Автору респект!!!
[Профиль]  [ЛС] 

Незнайка

Флибустьер

Пост 21-Янв-2015 00:12 (спустя 46 минут)

[Q] 

Спасибо!!! Супер!
[Профиль]  [ЛС] 
Показать сообщения:    
Ответить на тему

Текущее время: Сегодня 22:33

Часовой пояс: GMT + 4



Вы не можете начинать темы
Вы не можете отвечать на сообщения
Вы не можете редактировать свои сообщения
Вы не можете удалять свои сообщения
Вы не можете голосовать в опросах
Вы не можете прикреплять файлы к сообщениям
Вы не можете скачивать файлы

▼ Вниз