ML
     
  Уважаемый Гость!
Вы можете поддержать проект и зарегистрироваться у наших партнеров - онлайн-стратегия MyLands. При регистрации в игре Вы получите код, который сможете активировать после регистрации на pirat.ca и получить 1000 дублонов.

Ваш код:
0fcd44bd35319f69313aa6e53b31c51cbff1c942
 
     

Нострадамус: 2012 / Nostradamus: 2012 (Энди Пиккард / Andy Pickard) [2009 г., документальный, история, DVDRip] MVO

Ответить на тему
 
Автор
Сообщение

Пост 18-Мар-2012 12:06

[Q] 

Gekon86ru

Морской Волк

Нострадамус: 2012 / Nostradamus: 2012
Год выпуска: 2009
Мировая премьера: 4 января 2009
Производство: США
Жанр: документальный, история
Продолжительность серии: 01:30:00
Перевод: Профессиональный (многоголосый, закадровый)
Субтитры: отсутствуют
Режиссер: Энди Пиккард / Andy Pickard
В ролях: Винсент Бриджес
Грегг Браден
Описание: Фильм «Нострадамус: 2012» рассказывает о том, что значат предсказания Нострадамуса.
Автор этого фильма, собрав множество материалов, пытается разобраться существуют ли научное подтверждение прихода конца света. Вы можете подумать, что предсказания Нострадамуса фантастика. Многие до сих спорят о том, что нас ждет, сбудутся ли предсказания. Стоит ли опасаться катастроф? По Библейским пророчествам также весь мир ожидает конец света. Неужели и правда нас ожидает глобальный голод, болезни, войны и в результате мрачное будущее? Все о вымирании человечества рассказывается в этом фильме.
Фильм «Нострадамус: 2012» интересный его можно считать достойным творением автора. Этот филь имеет интригующий сюжет, большие вложения и является одним из лучших фильмов – катастроф. Также порадовало участие в фильме актера Джона Кьюсока. Оригинальное название фильма конечно не очень радует «Это конец». Но наши кинопрокатчики его назвали «2012». Этот фильм нельзя смотреть слишком впечатлительным людям он депрессивен. В результате просмотра фильма человек начнет задумываться о своей жизни, о том, как изменить ее к лучшему.
Источник/Качество: DVDRip
Формат: AVI
Видео кодек: XviD
Аудио кодек: AC3
Видео: 1762 Кбит/сек, 720х400 (16:9), 23,976 fps
Аудио: 384 Кбит/сек, 2 канала, 48,0 КГц
Кинопоиск
Формат : AVI
Формат/Информация : Audio Video Interleave
Размер файла : 1,36 Гбайт
Продолжительность : 1 ч. 30 м.
Общий поток : 2155 Кбит/сек
Программа кодирования : VirtualDubMod 1.5.10.2 (build 2540/release)
Библиотека кодирования : VirtualDubMod build 2540/release
Видео
Идентификатор : 0
Формат : MPEG-4 Visual
Профиль формата : Advanced [email protected]
Параметр BVOP формата : 2
Параметр QPel формата : Нет
Параметр GMC формата : Без точки перехода
Параметр матрицы формата : Default (H.263)
Режим смешивания : Сжатый битовый поток
Идентификатор кодека : XVID
Идентификатор кодека/Подсказка : XviD
Продолжительность : 1 ч. 30 м.
Битрейт : 1762 Кбит/сек
Ширина : 720 пикселей
Высота : 400 пикселей
Соотношение сторон : 16:9
Частота кадров : 23,976 кадра/сек
Цветовое пространство : YUV
Субдискретизация насыщенности : 4:2:0
Битовая глубина : 8 бит
Тип развёртки : Прогрессивная
Метод сжатия : С потерями
Бит/(Пиксели*Кадры) : 0.255
Размер потока : 1,12 Гбайт (82%)
Библиотека кодирования : XviD 1.2.1 (UTC 2008-12-04)
Аудио
Идентификатор : 1
Формат : AC-3
Формат/Информация : Audio Coding 3
Расширение режима : CM (complete main)
Идентификатор кодека : 2000
Продолжительность : 1 ч. 30 м.
Вид битрейта : Постоянный
Битрейт : 384 Кбит/сек
Каналы : 2 канала
Расположение каналов : Front: L R
Частота : 48,0 КГц
Битовая глубина : 16 бит
Метод сжатия : С потерями
Размер потока : 249 Мбайт (18%)
Выравнивание : Разделение по промежуткам
Продолжительность промежутка : 42 мс. (1,00 видеокадр)
Время предзагрузки промежутка : 500 мс.
Download / Скачать

Хотите скачать бесплатно? Зарегистрируйтесь на сайте (ссылка на регистрацию). Pirat.ca - самый быстрый торрент трекер в рунете!

Как скачивать  ·   Что такое торрент  ·   Рейтинг и ограничения



Последний раз редактировалось: Gekon86ru (2012-03-18 20:48), всего редактировалось 2 раз(а)

lis777

Корсар

Пост 19-Апр-2012 19:11 (спустя 1 месяц 1 день)

[Q] 

[Профиль]  [ЛС] 
Показать сообщения:    
Ответить на тему

Текущее время: Сегодня 02:13

Часовой пояс: GMT + 4



Вы не можете начинать темы
Вы не можете отвечать на сообщения
Вы не можете редактировать свои сообщения
Вы не можете удалять свои сообщения
Вы не можете голосовать в опросах
Вы не можете прикреплять файлы к сообщениям
Вы не можете скачивать файлы

▼ Вниз