ML
     
  Уважаемый Гость!
Вы можете поддержать проект и зарегистрироваться у наших партнеров - онлайн-стратегия MyLands. При регистрации в игре Вы получите код, который сможете активировать после регистрации на pirat.ca и получить 1000 дублонов.

Ваш код:
a01a592a88af5f9996a6d1baec61b18a1769954d
 
     

7 знаков Апокалипсиса / 7 Signs of the Apocalypse [2008 г.] (документальный) [HDTVRip] (VO)

Ответить на тему
 
Автор
Сообщение

Пост 28-Окт-2011 21:25

[Q] 

DEATH

7 знаков Апокалипсиса / 7 Signs of the Apocalypse
Год выпуска: 2008
Производство: Morningstar Entertainment (США), A & E Television Networks (США)
Жанр: документальный
Продолжительность: 01:24:18
Перевод: Профессиональный (многоголосый)
Описание: Во время изучения Гренландии исследователи делают пугающее открытие... 2005 год, Флорида. Внезапно пляж покрывают трупы морских животных... 2004 год, Индонезия. Цунами, вызванное мощным землетрясением... Предсказания из Библии сбываются и эксперты подтверждают, что это только начало. Возможно мы приближаемся к финальному рубежу... Осталось только разглядеть - 7 знаков Апокалипсиса.
Источник/Качество: HDTVRip
Формат: MKV
Видео кодек: VC-1
Аудио кодек: AC3
Видео: AVC, 1280x720 (16/9), 25.000 fps, 3 260 Kbps (0.138 bit/pixel)
Аудио #1: AC-3, 48.0 KHz, 2 ch, 128 Kbps, CBR (Russian)
Аудио #2: AC-3, 48.0 KHz, 6 ch, 384 Kbps, CBR (German)
Общее
Уникальный идентификатор: 226587929325418703376577738842450916914 (0xAA773F70A309FC6584B4091A6B7B7632)
Полное имя: F:\релиз 3\7.zn.Ap.2008.x264.HDTVRip[pirat.ca].mkv
Формат: Matroska
Размер файла: 2,22 Гбайт
Продолжительность: 1 ч. 24 м.
Общий поток: 3773 Кбит/сек
Дата кодирования: UTC 2011-04-10 23:16:40
Программа кодирования: mkvmerge v3.2.0 ('Beginnings') built on Feb 12 2010 16:46:17
Библиотека кодирования: libebml v0.7.9 + libmatroska v0.8.1
Видео
Идентификатор: 1
Формат: AVC
Формат/Информация: Advanced Video Codec
Профиль формата: [email protected]
Параметр CABAC формата: Да
Параметр ReFrames формата: 5 кадры
Идентификатор кодека: V_MPEG4/ISO/AVC
Продолжительность: 1 ч. 24 м.
Битрейт : 3260 Кбит/сек
Ширина : 1280 пикс.
Высота : 720 пикс.
Соотношение сторон : 16:9
Частота кадров : 25,000 кадр/сек
Цветовое пространство : YUV
Подвыборка цветности : 4:2:0
Битовая глубина : 8 бит
Тип развёртки : Прогрессивная
Бит/(Пиксели*Кадры) : 0.141
Размер потока : 1,88 Гбайт (84%)
Библиотека кодирования : x264 core 80 r1376M 3feaec2
Настройки программы : cabac=1 / ref=5 / deblock=1:0:0 / analyse=0x3:0x113 / me=umh / subme=6 / psy=1 / psy_rd=1.0:0.0 / mixed_ref=1 / me_range=12 / chroma_me=1 / trellis=1 / 8x8dct=1 / cqm=0 / deadzone=21,11 / fast_pskip=1 / chroma_qp_offset=-2 / threads=3 / sliced_threads=0 / nr=0 / decimate=1 / mbaff=0 / constrained_intra=0 / bframes=3 / b_pyramid=0 / b_adapt=1 / b_bias=0 / direct=3 / wpredb=1 / wpredp=2 / keyint=250 / keyint_min=25 / scenecut=40 / rc_lookahead=40 / rc=2pass / mbtree=1 / bitrate=3260 / ratetol=1.0 / qcomp=0.60 / qpmin=10 / qpmax=51 / qpstep=4 / cplxblur=20.0 / qblur=0.5 / ip_ratio=1.40 / aq=1:1.00
Аудио #1
Идентификатор : 2
Формат : AC-3
Формат/Информация : Audio Coding 3
Расширение режима : CM (complete main)
Идентификатор кодека : A_AC3
Продолжительность : 1 ч. 24 м.
Вид битрейта : Постоянный
Битрейт : 128 Кбит/сек
Канал(ы) : 2 канала(ов)
Расположение каналов : Front: L R
Частота : 48,0 КГц
Битовая глубина : 16 бит
Метод сжатия : С потерями
Размер потока : 77,2 Мбайт (3%)
Заголовок : Russian_AC3
Язык : Russian
Аудио #2
Идентификатор : 3
Формат : AC-3
Формат/Информация : Audio Coding 3
Расширение режима : CM (complete main)
Идентификатор кодека : A_AC3
Продолжительность : 1 ч. 24 м.
Вид битрейта : Постоянный
Битрейт : 384 Кбит/сек
Канал(ы) : 6 канала(ов)
Расположение каналов : Front: L C R, Side: L R, LFE
Частота : 48,0 КГц
Битовая глубина : 16 бит
Метод сжатия : С потерями
Размер потока : 232 Мбайт (10%)
Заголовок : German_AC3
Язык : German
Download / Скачать

Хотите скачать бесплатно? Зарегистрируйтесь на сайте (ссылка на регистрацию). Pirat.ca - самый быстрый торрент трекер в рунете!

Как скачивать  ·   Что такое торрент  ·   Рейтинг и ограничения



Последний раз редактировалось: DEATH (2011-10-30 14:01), всего редактировалось 1 раз

goxakrauter

4540

Пост 28-Окт-2011 21:36 (спустя 10 минут)

[Q] 

DEATH, спасибо.
[Профиль]  [ЛС] 

DEATH ®

40

Пост 28-Окт-2011 21:46 (спустя 9 минут)

[Q] 

goxakrauter, Спасибо тому кто когда то эту раздачу сделал =) я ее просто восстановил =)

_________________
Точные суждения порождены неподвижными умом и сердцем
Я AndreyDmit!!!!
[Профиль]  [ЛС] 

goxakrauter

4540

Пост 28-Окт-2011 21:56 (спустя 10 минут)

[Q] 

DEATH, за это и спасибо!
[Профиль]  [ЛС] 

DEATH ®

40

Пост 31-Окт-2011 16:51 (спустя 2 дня 18 часов)

[Q] 

Временно ухожу с раздачи, проблемы с хардом.

_________________
Точные суждения порождены неподвижными умом и сердцем
Я AndreyDmit!!!!
[Профиль]  [ЛС] 

daemon_chiff

Шкипер

Пост 03-Ноя-2011 07:00 (спустя 2 дня 14 часов)

[Q] 

проблемы с хардом - это всегда грустно. починяй, мы поддержим раздачу.
[Профиль]  [ЛС] 

ElSkorpio

16

Пост 09-Май-2014 09:41 (спустя 2 года 6 месяцев)

[Q] 

AntiZip

_________________
[Профиль]  [ЛС] 
Показать сообщения:    
Ответить на тему

Текущее время: Сегодня 09:49

Часовой пояс: GMT + 4



Вы не можете начинать темы
Вы не можете отвечать на сообщения
Вы не можете редактировать свои сообщения
Вы не можете удалять свои сообщения
Вы не можете голосовать в опросах
Вы не можете прикреплять файлы к сообщениям
Вы не можете скачивать файлы

▼ Вниз