ML
     
  Уважаемый Гость!
Вы можете поддержать проект и зарегистрироваться у наших партнеров - онлайн-стратегия MyLands. При регистрации в игре Вы получите код, который сможете активировать после регистрации на pirat.ca и получить 1000 дублонов.

Ваш код:
e6008d9811a0b6a1393c3dc51ecd7bc35637bc21
 
     

Холодный ядерный синтез (Филимоненко И. С.) [1997 г., документальный, TVRip] (Original)

Ответить на тему
 
Автор
Сообщение

Пост 03-Дек-2011 03:51

[Q] 

memorro7

Штурман

Холодный ядерный синтез
Год выпуска: 1997
Производство: Россия
Жанр: документальный
Продолжительность: 00:31:47
Перевод: Original
Оригинальный аудиопоток: Русский
Автор(ы) перевода: проект Zaryad
Режиссер: Филимоненко И. С.
В ролях: Филимоненко И. С.
Описание: Узнав об американских исследованиях холодного ядерного синтеза Флейшмана и Понза, которые были вскоре отвергнуты правительством США как ошибочные. Наше правительство восстановило Филимоненко в должности ведущего конструктора, для продолжения работ от которых он было отстранен еще 30 лет назад. Со 2 апреля 1989 по 1 января 1991 года под руководством Филимоненко было изготовлено 3 опытных образца энергетических установок, использующих энергию холодного ядерного синтеза. И заново разработаны чертежи установок для подавления радиации. Испытания должны были производится на НПО «Красная звезда», но они не состоялись. 1 января 1991 года Филимоненко вновь отстранили от работы и лишили пропуска на все предприятия НПО. Объяснение было одно – нет средств. Еще одна попытка подарить человечеству безопасную энергию окончилась крахом.
Релиз:
Источник/Качество: TVRip
Формат: AVI
Видео кодек: DivX
Аудио кодек: MP3
Видео: 640x480 (1.33:1), 25 fps, DivX Codec 6.8.5/6.9.1 ~609 kbps avg, 0.08 bit/pixel
Аудио: 48 kHz, MPEG Layer 3, 1 ch, ~64.00 kbps avg
Субтитры: отсутствуют
Format : AVI
Format/Info : Audio Video Interleave
File size : 155 MiB
Duration : 31mn 47s
Overall bit rate : 684 Kbps
Writing application : VirtualDubMod 1.5.10.2 (build 2542/release)
Writing library : VirtualDubMod build 2542/release
Video
ID : 0
Format : MPEG-4 Visual
Format settings, BVOP : No
Format settings, QPel : No
Format settings, GMC : No warppoints
Format settings, Matrix : Default (H.263)
Codec ID : DX50
Codec ID/Hint : DivX 5
Duration : 31mn 47s
Bit rate : 610 Kbps
Width : 640 pixels
Height : 480 pixels
Display aspect ratio : 4:3
Frame rate : 25.000 fps
Color space : YUV
Chroma subsampling : 4:2:0
Bit depth : 8 bits
Scan type : Progressive
Compression mode : Lossy
Bits/(Pixel*Frame) : 0.079
Stream size : 139 MiB (89%)
Writing library : DivX 6.8.5 (UTC 2009-08-20)
Audio
ID : 1
Format : MPEG Audio
Format version : Version 1
Format profile : Layer 3
Codec ID : 55
Codec ID/Hint : MP3
Duration : 31mn 47s
Bit rate mode : Constant
Bit rate : 64.0 Kbps
Channel(s) : 1 channel
Sampling rate : 48.0 KHz
Compression mode : Lossy
Stream size : 14.6 MiB (9%)
Alignment : Split accross interleaves
Interleave, duration : 40 ms (1.00 video frame)
Interleave, preload duration : 500 ms
Download / Скачать

Хотите скачать бесплатно? Зарегистрируйтесь на сайте (ссылка на регистрацию). Pirat.ca - самый быстрый торрент трекер в рунете!

Как скачивать  ·   Что такое торрент  ·   Рейтинг и ограничения



Последний раз редактировалось: memorro7 (2011-12-03 14:32), всего редактировалось 1 раз

Seva78

1518

Пост 03-Дек-2011 13:35 (спустя 9 часов)

[Q] 

Ещё не успели раздачу проверить,как начали отваливаться скрины на BitBestRu,воспользуйтесь пожалуйста стабильным хостингом
http://imageban.ru/ http://imagepost.ru/ http://picthost.ru/ http://fastpic.ru/ на своё усмотрение.

_________________
[Профиль]  [ЛС] 

memorro7 ®

Штурман

189

Пост 03-Дек-2011 14:34 (спустя 58 минут)

[Q] 

Ок, перезалила. А не желаете в список рекомендуемых добавить и радикал? Ни разу, сколько себя помню, скрины не пропадали. И если полноразмерные скриншоты размещать, то и реклама хостинга не страшна.
[Профиль]  [ЛС] 

Seva78

1518

Пост 03-Дек-2011 16:54 (спустя 2 часа 20 минут)

[Q] 

memorro7, Я тоже пользуюсь только радикалом,хотя слышал мнение что он глючит,но за больше чем три года я не сталкивался с проблемами,вы сами выбираете чем пользоваться,вам же потом если что перезаливать изображения.

_________________
[Профиль]  [ЛС] 

demon8

Лоцман

Пост 02-Апр-2012 18:01 (спустя 3 месяца 30 дней)

[Q] 

Все это конечно неплохо. Многие из нас уже слышали о множестве так и не внедренных энергосберегающих технологиях, которые уже в общем-то давно изобретены, но умышленно, злонамеренно не одобряются в высших инстанциях. Ученые занимающиеся этими вопросами прекрасно знают о том что их изобретения еще не скоро увидят свет и будут поставлены на конвеер (массово внедрятся) в целях экономии энергоресурсов и как следствие этого - сохранении экологии на земле в глобальном понимании. Глобалистам правящим миром невыгодны все эти полезные и безусловно необходимые человечеству и природе изобретения, поэтому добро на пректическое массовое применение подобных высоких технологий не дается, а ученые занимающиеся данными вопросами нередко уничтожаются мировой мафией, как представляющие угрозу их утопической бесконечной жажде наживы на применяемых морально устаревших технологиях которые можно смело относить к каменному веку, если сравнивать с новыми нанотехнологиями.
Вот так и живем благодаря кучке пидорастов правящих миром, и ведущих человечество к утопию. Это мое личное наблюдение и мнение в котором я полностью уверен.
Если еще раз подитожить сказанное мной выше и высказаться вкратце: Глобалисты тормозят развитие человечества извлекая максимальную прибыль из устаревших технологий, и тем самым вдобавок уничтожают экологию (жизнь на земле), помимо еще и ведения человечества к деградации и вырождению на всех уровнях (духовном, физическом....).
Дмитрий. Киев.
[Профиль]  [ЛС] 

Olegarkh73

Корсар

240

Пост 01-Мар-2013 16:18 (спустя 10 месяцев 26 дней)

[Q] 

Благодарствую!
[Профиль]  [ЛС] 
Показать сообщения:    
Ответить на тему

Текущее время: Сегодня 02:05

Часовой пояс: GMT + 4



Вы не можете начинать темы
Вы не можете отвечать на сообщения
Вы не можете редактировать свои сообщения
Вы не можете удалять свои сообщения
Вы не можете голосовать в опросах
Вы не можете прикреплять файлы к сообщениям
Вы не можете скачивать файлы

▼ Вниз