ML
     
  Уважаемый Гость!
Вы можете поддержать проект и зарегистрироваться у наших партнеров - онлайн-стратегия MyLands. При регистрации в игре Вы получите код, который сможете активировать после регистрации на pirat.ca и получить 1000 дублонов.

Ваш код:
47bfc18b89c74e4ae0d974e9b6943639e2bff08e
 
     

Дух времени / Zeitgeist (Питер Джозеф / Peter Joseph) [2007 г., документальный, история, TV-Rip] MVO

Ответить на тему
 
Автор
Сообщение

Пост 18-Мар-2012 16:38

[Q] 

Gekon86ru

Морской Волк

Дух времени / Zeitgeist
Год выпуска: 2007
Мировая премьера: 1 июня 2007
Производство: США
Жанр: документальный, история
Продолжительность серии: 01:58:00
Перевод: Профессиональный (одноголосый, закадровый)
Оригинальный аудиопоток: английский
Субтитры: отсутствуют
Режиссер: Питер Джозеф / Peter Joseph
В ролях: Осама Бен Ладен
Джордж У. Буш
Джордж Карлин
Тим Гэлловэй
Билл Хикс
Адольф Гитлер
Дэвид Ик
Линдон Лярош
Джордан Максвелл
Чогьям Трунгпа
Описание: Что объединяет библейский миф, теракты 11 сентября и кредитную систему во главе с центробанком? Ложь, которая служит на протяжении веков порабощению человечества.
Кто и для чего создает религии?
Кто стоит за терактами 11 сентября?
Кто и как зарабатывает на войнах?
На кого работает средний американец 4 месяца в году?
Почему война с терроризмом может продолжаться вечно?
Для чего нужны СМИ и индустрия развлечений?
Какое будущее готовит планете мировое правительство?
Фильм дает уникальный анализ многочисленных фактов манипуляции общественным сознанием с древнейших времен по настоящее и заставляет задуматься, а таков ли мир, каким нас научили его представлять? И хотя фильм рассказывает о происходящем в Америке, он помогает русскому человеку понять принципы и технологии глобальной политики и найти аналогии в нашей истории. Каковы были цели крещения Руси, кому был выгоден теракт в Беслане, на кого работает ЦБ РФ? Осознав суть происходящего, вы сможете ответить на эти и многие другие вопросы самостоятельно.
Источник/Качество: TV-Rip
Формат: AVI
Видео кодек: XviD
Аудио кодек: MPEG Audio
Видео: 640х480 пикселей, (4:3), 692 Кбит/сек,23,976 кадра/сек
Аудио: 160 Кбит/сек, 2 канала, 44,1 КГц
Кинопоиск
Формат : AVI
Формат/Информация : Audio Video Interleave
Размер файла : 728 Мбайт
Продолжительность : 1 ч. 58 м.
Общий поток : 862 Кбит/сек
Программа кодирования : VirtualDubMod 1.5.10.2 (build 2542/release)
Библиотека кодирования : VirtualDubMod build 2542/release
Видео
Идентификатор : 0
Формат : MPEG-4 Visual
Профиль формата : Advanced [email protected]
Параметр BVOP формата : 2
Параметр QPel формата : Нет
Параметр GMC формата : Без точки перехода
Параметр матрицы формата : Default (H.263)
Идентификатор кодека : XVID
Идентификатор кодека/Подсказка : XviD
Продолжительность : 1 ч. 58 м.
Битрейт : 692 Кбит/сек
Ширина : 640 пикселей
Высота : 480 пикселей
Соотношение сторон : 4:3
Частота кадров : 23,976 кадра/сек
Цветовое пространство : YUV
Субдискретизация насыщенности : 4:2:0
Битовая глубина : 8 бит
Тип развёртки : Прогрессивная
Метод сжатия : С потерями
Бит/(Пиксели*Кадры) : 0.094
Размер потока : 585 Мбайт (80%)
Библиотека кодирования : XviD 1.1.2 (UTC 2006-11-01)
Аудио
Идентификатор : 1
Формат : MPEG Audio
Версия формата : Version 1
Профиль формата : Layer 3
Режим : Joint stereo
Расширение режима : MS Stereo
Идентификатор кодека : 55
Идентификатор кодека/Подсказка : MP3
Продолжительность : 1 ч. 58 м.
Вид битрейта : Постоянный
Битрейт : 160 Кбит/сек
Каналы : 2 канала
Частота : 44,1 КГц
Метод сжатия : С потерями
Размер потока : 135 Мбайт (19%)
Выравнивание : Соединение по промежуткам
Продолжительность промежутка : 42 мс. (1,00 видеокадр)
Время предзагрузки промежутка : 522 мс.
Библиотека кодирования : LAME3.95
Download / Скачать

Хотите скачать бесплатно? Зарегистрируйтесь на сайте (ссылка на регистрацию). Pirat.ca - самый быстрый торрент трекер в рунете!

Как скачивать  ·   Что такое торрент  ·   Рейтинг и ограничения



Последний раз редактировалось: Gekon86ru (2012-03-18 20:57), всего редактировалось 3 раз(а)

dadry

Штурман

Пост 23-Мар-2012 00:17 (спустя 4 дня)

[Q] 

[Профиль]  [ЛС] 

fetal13

Штурман

Пост 19-Ноя-2013 12:55 (спустя 1 год 7 месяцев)

[Q] 

Скорость как у черепахи аааа скорость скорость скорость
[Профиль]  [ЛС] 

Maks_e

Корсар

69

Пост 10-Янв-2015 10:36 (спустя 1 год 1 месяц)

[Q] 

Автору респект!!! посмотрим
[Профиль]  [ЛС] 
Показать сообщения:    
Ответить на тему

Текущее время: Сегодня 07:02

Часовой пояс: GMT + 4



Вы не можете начинать темы
Вы не можете отвечать на сообщения
Вы не можете редактировать свои сообщения
Вы не можете удалять свои сообщения
Вы не можете голосовать в опросах
Вы не можете прикреплять файлы к сообщениям
Вы не можете скачивать файлы

▼ Вниз