ML
     
  Уважаемый Гость!
Вы можете поддержать проект и зарегистрироваться у наших партнеров - онлайн-стратегия MyLands. При регистрации в игре Вы получите код, который сможете активировать после регистрации на pirat.ca и получить 1000 дублонов.

Ваш код:
47bfc18b89c74e4ae0d974e9b6943639e2bff08e
 
     

Дух времени: Приложение / Zeitgeist: Addendum (Питер Джозеф / Peter Joseph) [2008 г., документальный, TV-Rip] MVO

Ответить на тему
 
Автор
Сообщение

Пост 18-Мар-2012 17:30

[Q] 

Gekon86ru

Морской Волк

Дух времени: Приложение / Zeitgeist: Addendum
Год выпуска: 2008
Мировая премьера: 2 октября 2008
Производство: США
Жанр: документальный
Продолжительность серии: 02:03:00
Перевод: Профессиональный (одноголосый, закадровый)
Оригинальный аудиопоток: английский
Субтитры: отсутствуют
Режиссер: Питер Джозеф / Peter Joseph
В ролях: Жак Фреско
Джидду Кришнамурти
Роксанна Медоуз
Джон Перкинс
Джордж Карлин
Ноэль Хантер
Рон Пол
Описание: Фильм раскрывает теорию заговора, рассматривает Федеральную Резервную Систему США, разоблачает американские корпорации, сотрудничающие с ЦРУ и другими институтами. Многое говорится о либертарном движении, называемом Проект Венера.
Источник/Качество: TV-Rip
Формат: AVI
Видео кодек: XviD
Аудио кодек: MPEG Audio
Видео: 640х360 пикселей, (16:9), 659 Кбит/сек, 23,976 кадра/сек
Аудио: MPEG Audio, 2 канала, 192 Кбит/сек
Кинопоиск
Формат : AVI
Формат/Информация : Audio Video Interleave
Размер файла : 757 Мбайт
Продолжительность : 2 ч. 3 м.
Общий поток : 860 Кбит/сек
Программа кодирования : VirtualDubModRus 1.5.10.2 (build 2540/release)
Библиотека кодирования : VirtualDubMod build 2540/release
Видео
Идентификатор : 0
Формат : MPEG-4 Visual
Профиль формата : Advanced [email protected]
Параметр BVOP формата : 2
Параметр QPel формата : Нет
Параметр GMC формата : Без точки перехода
Параметр матрицы формата : Default (MPEG)
Идентификатор кодека : XVID
Идентификатор кодека/Подсказка : XviD
Продолжительность : 2 ч. 3 м.
Битрейт : 659 Кбит/сек
Ширина : 640 пикселей
Высота : 360 пикселей
Соотношение сторон : 16:9
Частота кадров : 23,976 кадра/сек
Цветовое пространство : YUV
Субдискретизация насыщенности : 4:2:0
Битовая глубина : 8 бит
Тип развёртки : Прогрессивная
Метод сжатия : С потерями
Бит/(Пиксели*Кадры) : 0.119
Размер потока : 580 Мбайт (77%)
Библиотека кодирования : XviD 1.1.2 (UTC 2006-11-01)
Аудио
Идентификатор : 1
Формат : MPEG Audio
Версия формата : Version 1
Профиль формата : Layer 3
Режим : Joint stereo
Расширение режима : MS Stereo
Идентификатор кодека : 55
Идентификатор кодека/Подсказка : MP3
Продолжительность : 2 ч. 3 м.
Вид битрейта : Постоянный
Битрейт : 192 Кбит/сек
Каналы : 2 канала
Частота : 44,1 КГц
Метод сжатия : С потерями
Размер потока : 169 Мбайт (22%)
Выравнивание : Разделение по промежуткам
Продолжительность промежутка : 42 мс. (1,00 видеокадр)
Время предзагрузки промежутка : 500 мс.
Download / Скачать

Хотите скачать бесплатно? Зарегистрируйтесь на сайте (ссылка на регистрацию). Pirat.ca - самый быстрый торрент трекер в рунете!

Как скачивать  ·   Что такое торрент  ·   Рейтинг и ограничения



Последний раз редактировалось: Gekon86ru (2012-03-18 21:02), всего редактировалось 3 раз(а)

fetal13

Штурман

Пост 18-Ноя-2013 13:05 (спустя 1 год 7 месяцев)

[Q] 

Спасибо!!! спасибо
[Профиль]  [ЛС] 
Показать сообщения:    
Ответить на тему

Текущее время: Сегодня 06:58

Часовой пояс: GMT + 4



Вы не можете начинать темы
Вы не можете отвечать на сообщения
Вы не можете редактировать свои сообщения
Вы не можете удалять свои сообщения
Вы не можете голосовать в опросах
Вы не можете прикреплять файлы к сообщениям
Вы не можете скачивать файлы

▼ Вниз