ML
     
  Уважаемый Гость!
Вы можете поддержать проект и зарегистрироваться у наших партнеров - онлайн-стратегия MyLands. При регистрации в игре Вы получите код, который сможете активировать после регистрации на pirat.ca и получить 1000 дублонов.

Ваш код:
ca44e9295b9b8527ba1c339c20494f70782efea6
 
     

Дух времени: Следующий шаг / Zeitgeist: Moving Forward (Питер Джозеф / Peter Joseph) [2011 г., документальный, DVDRip] MVO

Ответить на тему
 
Автор
Сообщение

Пост 18-Мар-2012 21:25

[Q] 

Gekon86ru

Морской Волк

Дух времени: Следующий шаг / Zeitgeist: Moving Forward
Год выпуска: 2011
Мировая премьера: 15 января 2011
Производство: США
Жанр: документальный
Продолжительность серии: 02:41:00
Перевод: Профессиональный (одноголосый, закадровый)
Оригинальный аудиопоток: английский
Субтитры: отсутствуют
Режиссер: Питер Джозеф / Peter Joseph
В ролях: Питер Джозеф
Роберт Сапольский
Габор Мате
Ричард Уилкинсон
Джеймс Джиллигэн
Джон МакМартри
Майкл Рупперт
Макс Кейсер
Жак Фреско
Адриан Боуйер
Описание: В фильме рассматривается вопрос необходимости выхода из существующей социально-экономической системы. Раскрываемая в фильме тема выходит за пределы вопросов культурного релятивизма и традиционной идеологии, и для обозначения основных точек эмпирической взаимосвязи человечества и природы, экстраполирует неизменные ценности естественных законов на новую парадигму устойчивого социально-экономического развития, которая называется «ресурсоориентированная экономика».
Источник/Качество: DVDRip
Формат: AVI
Видео кодек: XviD
Аудио кодек: MPEG Audio
Видео: 720х400 пикселей, (16:9), 1617 Кбит/сек, 29,970 кадра/сек
Аудио: MPEG Audio, 2 канала, 192 Кбит/сек, 44,1 КГц
Кинопоиск
Формат : AVI
Формат/Информация : Audio Video Interleave
Профиль формата : OpenDML
Размер файла : 2,06 Гбайт
Продолжительность : 2 ч. 41 м.
Общий поток : 1824 Кбит/сек
Программа кодирования : VirtualDubMod 1.5.10.2 (build 2540/release)
Библиотека кодирования : VirtualDub build 32839/release
Видео
Идентификатор : 0
Формат : MPEG-4 Visual
Профиль формата : Advanced [email protected]
Параметр BVOP формата : 2
Параметр QPel формата : Да
Параметр GMC формата : 3 точки перехода
Параметр матрицы формата : Default (H.263)
Режим смешивания : Сжатый битовый поток
Идентификатор кодека : XVID
Идентификатор кодека/Подсказка : XviD
Продолжительность : 2 ч. 41 м.
Битрейт : 1617 Кбит/сек
Ширина : 720 пикселей
Высота : 400 пикселей
Соотношение сторон : 16:9
Частота кадров : 29,970 кадров/сек
Цветовое пространство : YUV
Субдискретизация насыщенности : 4:2:0
Битовая глубина : 8 бит
Тип развёртки : Прогрессивная
Метод сжатия : С потерями
Бит/(Пиксели*Кадры) : 0.187
Размер потока : 1,82 Гбайт (89%)
Библиотека кодирования : XviD 1.2.1 (UTC 2008-12-04)
Аудио
Идентификатор : 1
Формат : MPEG Audio
Версия формата : Version 1
Профиль формата : Layer 3
Идентификатор кодека : 55
Идентификатор кодека/Подсказка : MP3
Продолжительность : 2 ч. 41 м.
Вид битрейта : Постоянный
Битрейт : 192 Кбит/сек
Каналы : 2 канала
Частота : 44,1 КГц
Метод сжатия : С потерями
Задержка видео : 8 мс.
Размер потока : 221 Мбайт (11%)
Выравнивание : Разделение по промежуткам
Продолжительность промежутка : 33 мс. (1,00 видеокадр)
Время предзагрузки промежутка : 500 мс.
Библиотека кодирования : LAME3.89 (alpha)
Download / Скачать

Хотите скачать бесплатно? Зарегистрируйтесь на сайте (ссылка на регистрацию). Pirat.ca - самый быстрый торрент трекер в рунете!

Как скачивать  ·   Что такое торрент  ·   Рейтинг и ограничения



Последний раз редактировалось: Gekon86ru (2012-03-18 21:42), всего редактировалось 1 раз

Амангельды

35486

Пост 18-Мар-2012 21:32 (спустя 6 минут)

[Q] 

Описание сильное!!!
Прямо тебе как на лекции побывамши в далеком прошлом...

_________________

Товарищ, верь, пройдет она,
Так называемая гласность.
И вот тогда госбезопасность
Припомнит ваши имена
Раздачи от Амангельды - ТЫНЦ
[Профиль]  [ЛС] 
Показать сообщения:    
Ответить на тему

Текущее время: Сегодня 16:12

Часовой пояс: GMT + 4



Вы не можете начинать темы
Вы не можете отвечать на сообщения
Вы не можете редактировать свои сообщения
Вы не можете удалять свои сообщения
Вы не можете голосовать в опросах
Вы не можете прикреплять файлы к сообщениям
Вы не можете скачивать файлы

▼ Вниз