ML
     
  Уважаемый Гость!
Вы можете поддержать проект и зарегистрироваться у наших партнеров - онлайн-стратегия MyLands. При регистрации в игре Вы получите код, который сможете активировать после регистрации на pirat.ca и получить 1000 дублонов.

Ваш код:
fcd618d94adc1456bccbde5047c9cd0930e4ae4d
 
     

Настоящий Путин (Анастасия Каримова) [2012 г., Документальный, DVDRip]

Ответить на тему
 
Автор
Сообщение

Пост 19-Мар-2012 18:34

[Q] 

Степаныч

Настоящий Путин
Год выпуска: 2012
Жанр: Документальный
Продолжительность: 00:35:45
Перевод: Не требуется
Режиссер: Анастасия Каримова
Описание: Последние двенадцать лет принято называть временем стабильности. Все это время у власти в нашей стране находится Владимир Путин. Какой ценой дается нам эта стабильность? Или может быть это миф?
Беспристрастная наука статистика свидетельствует о том, что не все так хорошо в России, как это хочет представить государственное телевидение. Растет смертность. Социальное неравенство приобретает фантастические формы. От вседозволенности силовиков стонут и простые рабочие и их начальники -- бизнесмены. Коррупция как раковая опухоль пожирает Россию.
Чиновники, не стесняясь, демонстрируют свою любовь к красивой жизни -- шикарным дворцам, многомиллионным яхтам и наручным часам, которые по стоимости сопоставимы со средней пенсией за 208 лет.
Россия -- в числе лидеров по количеству долларовых миллиардеров и этот показатель растет с каждым годом. Но среди богатейших людей нашей страны нет тех, кто заработал деньги с помощью новых технологий. Новейшие русские -- это еще вчера никому неизвестные люди, разделившие сверхдоходы от нефти, газа, угля, металлов, электроэнергии. Единственная их заслуга -- это знакомство с Владимиром Путин во время его работы в мэрии Петербурга.
Это цена стабильности? Это будет продолжаться еще 12 лет? Ведь именно на столько Владимир Путин собирается вновь назначить себя президентом. Выдержит ли Россия? Выдержим ли мы с вами?
Об этом документальный фильм "Настоящий Путин", снятый инициативной группой граждан Российской Федерации.
Доп. информация: Автор раздачи не имеет отношения к съемкам фильма и не готов ответить на вопросы по процессу производства. Насколько можно понять из описания, фильм создавался инициативной группой и предназначен для самой широкой аудитории. Все герои фильма высказывали исключительно свое личное мнение. В фильме был использован текстовый, аудио-визуальный контент, находящийся в открытом доступе.
Качество: DVDRip
Формат: MPEG
Видео кодек:AVC
Аудио кодек: AАС
Видео: AVC, 720x480 (1.500), 25.000 fps, 1 454 Kbps (0.168 bit/pixel)
Аудио: AAC LC, 48.0 KHz, 2 ch, 256 Kbps, CBR (English)
Общее
Формат : MPEG-4
Профиль формата : Base Media / Version 2
Идентификатор кодека : mp42
Размер файла : 438 Мбайт
Продолжительность : 35 м.
Общий поток : 1713 Кбит/сек
Дата кодирования : UTC 2012-02-21 16:59:14
Дата пометки : UTC 2012-02-21 16:59:41
Видео
Идентификатор : 1
Формат : AVC
Формат/Информация : Advanced Video Codec
Профиль формата : [email protected]
Параметр CABAC формата : Нет
Параметр ReFrames формата : 1 кадр
Идентификатор кодека : avc1
Идентификатор кодека/Информация : Advanced Video Coding
Продолжительность : 35 м.
Вид битрейта : Переменный
Битрейт : 1454 Кбит/сек
Ширина : 720 пикс.
Высота : 480 пикс.
Соотношение сторон : 3:2
Режим частоты кадров : Постоянный
Частота кадров : 25,000 кадр/сек
Стандарт вещания : NTSC
Цветовое пространство : YUV
Подвыборка цветности : 4:2:0
Битовая глубина : 8 бит
Тип развёртки : Прогрессивная
Бит/(Пиксели*Кадры) : 0.168
Размер потока : 372 Мбайт (85%)
Язык : English
Дата кодирования : UTC 2012-02-21 16:59:12
Дата пометки : UTC 2012-02-21 16:59:41
Основные цвета : BT.601-6 525, BT.1358 525, BT.1700 NTSC, SMPTE 170M
Характеристики трансфера : BT.709-5, BT.1361
Коэффициенты матрицы : BT.601-6 525, BT.1358 525, BT.1700 NTSC, SMPTE 170M
Аудио
Идентификатор : 2
Формат : AAC
Формат/Информация : Advanced Audio Codec
Профиль формата : LC
Идентификатор кодека : 40
Продолжительность : 35 м.
Вид битрейта : Постоянный
Битрейт : 256 Кбит/сек
Канал(ы) : 2 канала(ов)
Расположение каналов : Front: L R
Частота : 48,0 КГц
Метод сжатия : С потерями
Размер потока : 65,5 Мбайт (15%)
Язык : English
Дата кодирования : UTC 2012-02-21 16:59:12
Дата пометки : UTC 2012-02-21 16:59:41



Download / Скачать

Хотите скачать бесплатно? Зарегистрируйтесь на сайте (ссылка на регистрацию). Pirat.ca - самый быстрый торрент трекер в рунете!

Как скачивать  ·   Что такое торрент  ·   Рейтинг и ограничения

Алёха

Флибустьер

Пост 20-Мар-2012 14:35 (спустя 20 часов)

[Q] 

[Профиль]  [ЛС] 

Амангельды

35499

Пост 20-Мар-2012 16:30 (спустя 1 час 54 минуты)

[Q] 

снятый инициативной группой граждан Российской Федерации
А инициаторы группы за океаном - прислали бабла - кину сняли, не прислали - кина не будет...
Фуфел оранжевый...

_________________

Товарищ, верь, пройдет она,
Так называемая гласность.
И вот тогда госбезопасность
Припомнит ваши имена
Раздачи от Амангельды - ТЫНЦ
[Профиль]  [ЛС] 

Nikos70

Шкипер

Пост 20-Мар-2012 19:02 (спустя 2 часа 32 минуты)

[Q] 

Оранжевый фуфел - это и есть путин.
[Профиль]  [ЛС] 

dadry

Штурман

Пост 24-Мар-2012 00:31 (спустя 3 дня)

[Q] 

[Профиль]  [ЛС] 

MI1618

Лоцман

Пост 14-Апр-2012 01:21 (спустя 21 день)

[Q] 

ГАРБАЧЕВА ДАВАЙ !ИЛИ ЕЛЬЦИНА .
[Профиль]  [ЛС] 

canfly

507

Пост 23-Сен-2012 15:28 (спустя 5 месяцев 9 дней)

[Q] 


_________________
[Профиль]  [ЛС] 
Показать сообщения:    
Ответить на тему

Текущее время: Сегодня 12:46

Часовой пояс: GMT + 4



Вы не можете начинать темы
Вы не можете отвечать на сообщения
Вы не можете редактировать свои сообщения
Вы не можете удалять свои сообщения
Вы не можете голосовать в опросах
Вы не можете прикреплять файлы к сообщениям
Вы не можете скачивать файлы

▼ Вниз