ML
     
  Уважаемый Гость!
Вы можете поддержать проект и зарегистрироваться у наших партнеров - онлайн-стратегия MyLands. При регистрации в игре Вы получите код, который сможете активировать после регистрации на pirat.ca и получить 1000 дублонов.

Ваш код:
34514219cfad5497a1822ecc1269bea77988f9aa
 
     

Энергия из вакуума. Часть 2 - Джон Бедини / Energy from the vacuum. Part 2 - John Bedini (Энтони Дж. Креддок) [2007 г., документальный, DVDRip] MVO

Ответить на тему
 
Автор
Сообщение

Пост 24-Мар-2012 05:00

[Q] 

memorro7

Штурман

Энергия из вакуума. Часть 2 - Джон Бедини / Energy from the vacuum. Part 2 - John Bedini
Год выпуска: 2007
Производство: США
Жанр: документальный
Продолжительность серии: 02:14:49
Перевод: Профессиональный (одноголосый, закадровый)
Автор(ы) перевода: проект Zaryad
Субтитры: отсутствуют
Режиссер: Энтони Дж. Креддок
В ролях: Джон Бедини, Том Бирден
Описание: Уникальный фильм впервые на русском. В этом фильме известный изобретатель и исследователь свободной радиантной энергии Джон Бедини впервые подробно демонстрирует несколько своих моделей двигателей, использующих новую систему генерирования электроэнергии, способную предложить миру по меньшей мере безграничный запас экологически чистой энергии.
В фильме представлены данные контрольно-измерительных приборов, осциллограммы и необходимые комментарии, позволяющие понять принципы извлечения радиантной энергии даже новичку.
«Прежде, чем сменятся многие поколения, наша техника будет работать на основе энергии, которую можно получить в любой точке вселенной. Эта идея не нова… Упоминание об этом можно найти в древнем мифе об Антее, который черпал энергию из земли.
В пространстве повсюду присутствует энергия. Статическая она или кинетическая? Если она статическая, нашим надеждам не суждено сбыться, если она кинетическая, а мы знаем, что так и есть, тогда это только вопрос времени, когда люди научатся черпать энергию из самой природы».
Никола Тесла
(из выступления в Американском институте инженеров-электриков в Нью-Йорке, 1891)
Релиз:
Источник/Качество: DVDRip
Формат: AVI
Видео кодек: DivX
Аудио кодек: MP3
Видео: 852x480 (1.77:1), 23.976 fps, DivX Codec 6.8.5/6.9.1 ~643 kbps avg, 0.07 bit/pixel
Аудио: 48 kHz, MPEG Layer 3, 1 ch, ~64.00 kbps avg
Format : AVI
Format/Info : Audio Video Interleave
File size : 692 MiB
Duration : 2h 14mn
Overall bit rate : 717 Kbps
Writing application : VirtualDubMod 1.5.10.2 (build 2542/release)
Writing library : VirtualDubMod build 2542/release
Video
ID : 0
Format : MPEG-4 Visual
Format settings, BVOP : 3
Format settings, QPel : No
Format settings, GMC : No warppoints
Format settings, Matrix : Default (H.263)
Muxing mode : Packed bitstream
Codec ID : DX50
Codec ID/Hint : DivX 5
Duration : 2h 14mn
Bit rate : 644 Kbps
Width : 852 pixels
Height : 480 pixels
Display aspect ratio : 16:9
Frame rate : 23.976 fps
Color space : YUV
Chroma subsampling : 4:2:0
Bit depth : 8 bits
Scan type : Progressive
Compression mode : Lossy
Bits/(Pixel*Frame) : 0.066
Stream size : 621 MiB (90%)
Writing library : DivX 6.8.5 (UTC 2009-08-20)
Audio
ID : 1
Format : MPEG Audio
Format version : Version 1
Format profile : Layer 3
Codec ID : 55
Codec ID/Hint : MP3
Duration : 2h 14mn
Bit rate mode : Constant
Bit rate : 64.0 Kbps
Channel(s) : 1 channel
Sampling rate : 48.0 KHz
Compression mode : Lossy
Stream size : 61.7 MiB (9%)
Alignment : Split accross interleaves
Interleave, duration : 42 ms (1.00 video frame)
Interleave, preload duration : 500 ms
Смотрите также:
Другие «Релизы проекта Заряд»
Руководство по однополюсным двигателям Бедини (рус.)
Научный сериал «Энергия из вакуума»
д/ф «История магнитного генератора Джона Серла»
д/ф «Потерянные секреты Николы Теслы»
д/ф «Генератор Тесла (Грузинский вариант)»
д/ф «Тяжелый Уотергейт - Война против холодного ядерного синтеза»
д/ф «Кто убил электромобиль»
д/ф «Новая теория атомного ядра - Болотов Борис Васильевич»
д/ф «Начало импульсной энергетики будущего - Канарев Ф.М.»
Download / Скачать

Хотите скачать бесплатно? Зарегистрируйтесь на сайте (ссылка на регистрацию). Pirat.ca - самый быстрый торрент трекер в рунете!

Как скачивать  ·   Что такое торрент  ·   Рейтинг и ограничения

Seva78

1517

Пост 24-Мар-2012 14:27 (спустя 9 часов)

[Q] 

memorro7,
Какое отношение имеют "Разрушители мифов" к этой раздаче(последний скрин)?

_________________
[Профиль]  [ЛС] 

UcrusPazzo

7670

Пост 24-Мар-2012 21:26 (спустя 6 часов)

[Q] 

Согласен с тобой Seva78, как-то не втему... я сам удалил.

_________________
[Профиль]  [ЛС] 

UcrusPazzo

7670

Пост 25-Янв-2013 00:30 (спустя 10 месяцев)

[Q] 


_________________
[Профиль]  [ЛС] 
Показать сообщения:    
Ответить на тему

Текущее время: Сегодня 07:55

Часовой пояс: GMT + 4



Вы не можете начинать темы
Вы не можете отвечать на сообщения
Вы не можете редактировать свои сообщения
Вы не можете удалять свои сообщения
Вы не можете голосовать в опросах
Вы не можете прикреплять файлы к сообщениям
Вы не можете скачивать файлы

▼ Вниз