ML
     
  Уважаемый Гость!
Вы можете поддержать проект и зарегистрироваться у наших партнеров - онлайн-стратегия MyLands. При регистрации в игре Вы получите код, который сможете активировать после регистрации на pirat.ca и получить 1000 дублонов.

Ваш код:
a01a592a88af5f9996a6d1baec61b18a1769954d
 
     

Прибытие поезда на вокзал города Ла-Сьота / L' Arrivée d'un train à la Ciotat (Огюст Люмьер / Auguste Lumière, Луи Люмьер / Louis Lumière) [1895 г., документальный, короткометражка, DVDRip]

Ответить на тему
 
Автор
Сообщение

Пост 28-Мар-2012 18:20

[Q] 

Linnan

Прибытие поезда на вокзал города Ла-Сьота / L' Arrivée d'un train à la Ciotat
Год выпуска: 1895
Мировая премьера: 6 января 1896
Производство: Франция
Жанр: документальный, короткометражка
Продолжительность серии: 00:00:49
Перевод: Не требуется
Субтитры: отсутствуют
Режиссер: Огюст Люмьер / Auguste Lumière, Луи Люмьер / Louis Lumière
В ролях: Прибывающий поезд, работники вокзала и пассажиры
Описание: Всемирно известная короткометражка про прибытие поезда на вокзал.
КиноПоиск, IMDb
Источник/Качество: DVDRip
Формат: AVI
Видео кодек: DivX
Аудио кодек: MP3
Видео: 720х480, 25 fps, 925 kbps, 0.089 b/px
Аудио: 56 kbps, 2 ch, 24 КHz
Общее
Полное имя : F:\Загрузки торрента\L' Arrivée d'un train à la Ciotat [pirat.ca].avi
Формат : AVI
Формат/Информация : Audio Video Interleave
Размер файла : 5,81 Мбайт
Продолжительность : 49 с.
Общий поток : 993 Кбит/сек
Библиотека кодирования : VirtualDub build 15654/release
Видео
Идентификатор : 0
Формат : MPEG-4 Visual
Идентификатор кодека : DIV3
Идентификатор кодека/Подсказка : DivX 3 Low
Продолжительность : 49 с.
Битрейт : 925 Кбит/сек
Ширина : 720 пикселей
Высота : 480 пикселей
Соотношение сторон : 3:2
Частота кадров : 29,970 кадров/сек
Стандарт вещания : NTSC
Цветовое пространство : YUV
Субдискретизация насыщенности : 4:2:0
Битовая глубина : 8 бит
Метод сжатия : С потерями
Бит/(Пиксели*Кадры) : 0.089
Размер потока : 5,41 Мбайт (93%)
Аудио
Идентификатор : 1
Формат : MPEG Audio
Версия формата : Version 2
Профиль формата : Layer 3
Режим : Joint stereo
Расширение режима : Intensity Stereo + MS Stereo
Идентификатор кодека : 55
Идентификатор кодека/Подсказка : MP3
Продолжительность : 49 с.
Вид битрейта : Постоянный
Битрейт : 56,0 Кбит/сек
Каналы : 2 канала
Частота : 24,0 КГц
Метод сжатия : С потерями
Задержка видео : 7 мс.
Размер потока : 335 Кбайт (6%)
Выравнивание : Разделение по промежуткам
Продолжительность промежутка : 34 мс. (1,01 видеокадр)
Время предзагрузки промежутка : 500 мс.
Download / Скачать

Хотите скачать бесплатно? Зарегистрируйтесь на сайте (ссылка на регистрацию). Pirat.ca - самый быстрый торрент трекер в рунете!

Как скачивать  ·   Что такое торрент  ·   Рейтинг и ограничения

ivan836

Морской Волк

Пост 28-Мар-2012 21:20 (спустя 2 часа 59 минут)

[Q] 

[Профиль]  [ЛС] 

xprotm

Корсар

5

Пост 28-Мар-2012 21:59 (спустя 38 минут)

[Q] 

[Профиль]  [ЛС] 

genkasper

4244

Пост 06-Апр-2012 22:59 (спустя 9 дней)

[Q] 

это не шутка, это пра-пра-пра-пра-пра-пра-пра-пра-прадедушка "Аватара"

_________________

обо всех исправлениях в темах пишите в ЛС
[Профиль]  [ЛС] 
Показать сообщения:    
Ответить на тему

Текущее время: Сегодня 09:47

Часовой пояс: GMT + 4



Вы не можете начинать темы
Вы не можете отвечать на сообщения
Вы не можете редактировать свои сообщения
Вы не можете удалять свои сообщения
Вы не можете голосовать в опросах
Вы не можете прикреплять файлы к сообщениям
Вы не можете скачивать файлы

▼ Вниз