ML
     
  Уважаемый Гость!
Вы можете поддержать проект и зарегистрироваться у наших партнеров - онлайн-стратегия MyLands. При регистрации в игре Вы получите код, который сможете активировать после регистрации на pirat.ca и получить 1000 дублонов.

Ваш код:
0af2e2107bc9b5dd5ac2c09f9fc25e1a77c43887
 
     

Начало импульсной энергетики будущего - Канарев Ф.М. (Канарев Ф.М) [2011 г., документальный, DVDRip] (Original)

Ответить на тему
 
Автор
Сообщение

Пост 31-Мар-2012 11:31

[Q] 

memorro7

Штурман

Начало импульсной энергетики будущего - Канарев Ф.М.
Год выпуска: 2011
Производство: Россия
Жанр: документальный
Продолжительность серии: 01:00:28
Перевод: Не требуется
Оригинальный аудиопоток: русский
Субтитры: отсутствуют
Режиссер: Канарев Ф.М
В ролях: Канарев Ф.М.
Описание: Понятие импульсная энергетика появилось недавно. Но не один политик еще не произносил его. Абсолютное большинство ученных, которые занимаются анализом энергетических проблем, еще не знают смысла заложенного в понятие – импульсная энергетика которая, господствует в природе, особенно в живых организмах, сердце которых питается электрическими импульсами. Человек изобрел непрерывные источники электрической энергии и непрерывные ее потребители, не понимают, что импульсный процесс потребления электрической энергии значительно экономнее непрерывного. Сейчас мы вам покажем результаты конкретных экспериментов.
Уважаемые теоретики математики и физики!
Пожалуйста не украшайте, результаты своих научных исследований обилием математических символов, не понимая физическую суть процессов, которые вы пытаетесь описать.
Уважаемые экспериментаторы!
Не игнорируйте противоречия, о которых мы здесь рассказали, между получаемыми результатами и теориями.
Уважаемые молодые физики и химики!
Знайте, противоречия в науке, игнорируемые поколениями ваших учителей, скрывают практические результаты, с глобальными положительными последствиями для человечества. Ваши учителя лишают вас возможности видеть перспективу этих последствий и уметь реализовывать ее.
Наша попытка обратить внимание Российской власти на уже давно созревший глобальный кризис фундаментальных наук и прежде всего в физике и химии, осталась голосом вопиющего в пустыне. А тот бред, который на меня выливают проплаченные критиканы, только подтверждает мои слова.
Канарев Ф.М.
Релиз:
Источник/Качество: DVDRip
Формат: AVI
Видео кодек: DivX
Аудио кодек: MP3
Видео: 640x480 (1.33:1), 25 fps, DivX Codec 6.8.5/6.9.1 ~548 kbps avg, 0.07 bit/pixel
Аудио: 48 kHz, MPEG Layer 3, 1 ch, ~64.00 kbps avg
Format : AVI
Format/Info : Audio Video Interleave
File size : 269 MiB
Duration : 1h 0mn
Overall bit rate : 623 Kbps
Writing application : VirtualDubMod 1.5.10.2 (build 2542/release)
Writing library : VirtualDubMod build 2542/release
Video
ID : 0
Format : MPEG-4 Visual
Format settings, BVOP : No
Format settings, QPel : No
Format settings, GMC : No warppoints
Format settings, Matrix : Default (H.263)
Codec ID : DX50
Codec ID/Hint : DivX 5
Duration : 1h 0mn
Bit rate : 549 Kbps
Width : 640 pixels
Height : 480 pixels
Display aspect ratio : 4:3
Frame rate : 25.000 fps
Color space : YUV
Chroma subsampling : 4:2:0
Bit depth : 8 bits
Scan type : Progressive
Compression mode : Lossy
Bits/(Pixel*Frame) : 0.071
Stream size : 237 MiB (88%)
Writing library : DivX 6.8.5 (UTC 2009-08-20)
Audio
ID : 1
Format : MPEG Audio
Format version : Version 1
Format profile : Layer 3
Codec ID : 55
Codec ID/Hint : MP3
Duration : 1h 0mn
Bit rate mode : Constant
Bit rate : 64.0 Kbps
Channel(s) : 1 channel
Sampling rate : 48.0 KHz
Compression mode : Lossy
Stream size : 27.7 MiB (10%)
Alignment : Split accross interleaves
Interleave, duration : 40 ms (1.00 video frame)
Interleave, preload duration : 500 ms
Смотрите также:
Другие «Релизы проекта Заряд»
Руководство по однополюсным двигателям Бедини (рус.)
Научный сериал «Энергия из вакуума»
д/ф «История магнитного генератора Джона Серла»
д/ф «Потерянные секреты Николы Теслы»
д/ф «Генератор Тесла (Грузинский вариант)»
д/ф «Тяжелый Уотергейт - Война против холодного ядерного синтеза»
д/ф «Кто убил электромобиль»
д/ф «Новая теория атомного ядра - Болотов Борис Васильевич»
д/ф «Свободная энергия - Погоня за энергией нулевой точки»
Download / Скачать

Хотите скачать бесплатно? Зарегистрируйтесь на сайте (ссылка на регистрацию). Pirat.ca - самый быстрый торрент трекер в рунете!

Как скачивать  ·   Что такое торрент  ·   Рейтинг и ограничения

Maxim54rus

Корсар

40

Пост 31-Мар-2012 15:00 (спустя 3 часа)

[Q] 

[Профиль]  [ЛС] 

demon8

Лоцман

Пост 02-Апр-2012 17:33 (спустя 2 дня 2 часа)

[Q] 

Все это конечно неплохо. Многие из нас уже слышали о множестве так и не внедренных энергосберегающих технологиях, которые уже в общем-то давно изобретены, но умышленно, злонамеренно не одобряются в высших инстанциях. Ученые занимающиеся этими вопросами прекрасно знают о том что их изобретения еще не скоро увидят свет и будут поставлены на конвеер (массово внедрятся) в целях экономии энергоресурсов и как следствие этого - сохранении экологии на земле в глобальном понимании. Глобалистам правящим миром невыгодны все эти полезные и безусловно необходимые человечеству и природе изобретения, поэтому добро на пректическое массовое применение подобных высоких технологий не дается, а цченые занимающиеся данными вопросами нередко уничтожаются мировой мафией, как представляющие угрозу их утопической бесконечной жажде наживы на применяемых морально устаревших технологиях которые можно смело относить к каменному веку, если сравнивать с новыми нанотехнологиями.
Вот так и живем благодаря кучке пидорастов правящих миром, и ведущих человечество к утопию. Это мое личное наблюдение и мнение в котором я полностью уверен.
Если еще раз подитожить сказанное мной выше и высказаться вкратце: Глобалисты тормозят развитие человечества извлекая максимальную прибыль из устаревших технологий, и тем самым вдобавок уничтожают экологию (жизнь на земле), помимо еще и ведения человечества к деградации и вырождению на всех уровнях (духовном, физическом....).
Дмитрий. Киев.
[Профиль]  [ЛС] 

WWsimf

Флибустьер

Пост 20-Апр-2012 22:01 (спустя 18 дней)

[Q] 

Спасибо!
[Профиль]  [ЛС] 

stiv007

Лоцман

Пост 15-Янв-2013 17:09 (спустя 8 месяцев 24 дня)

[Q] 

Поставлю в закачку. Посмотрю.
Но предыдущий комментарий мне не понравился: bl ck
Вырождение, деградация, уничтожение экосистемы на Земле, разрешение использовать только старые технологии
на фоне уничтожения мировой мафией всего передового (НАНО) во имя бесконечной наживы. bu
Очень громкие слова. И похожи они на стрельбу из зенитки по муравьям. Эффектно и громко, но-о мимо. fd
Как-то видел научного деятеля который смешивал солярку с водой ( 1 к 10) и получал топливо!!
ОН негодовал ca и возмущался тем, что не дают запускать изобретение в производство. cw
Были и другие ролики, где можно было видеть как самоучка в сарае, без фундаментальных знаний сделал вечный двигатель...
Из описания и скриншота ничего не понятно. dj ah
Посмотрю. (всего 1 сид)
P.S. Однако и фундаментальная наука получает сущие копейки. cs
Может Канареву Ф. М. нужно идти в "ОборонСевис" Там есть все возможности. fh
[Профиль]  [ЛС] 
Показать сообщения:    
Ответить на тему

Текущее время: Сегодня 00:02

Часовой пояс: GMT + 4



Вы не можете начинать темы
Вы не можете отвечать на сообщения
Вы не можете редактировать свои сообщения
Вы не можете удалять свои сообщения
Вы не можете голосовать в опросах
Вы не можете прикреплять файлы к сообщениям
Вы не можете скачивать файлы

▼ Вниз