ML
     
  Уважаемый Гость!
Вы можете поддержать проект и зарегистрироваться у наших партнеров - онлайн-стратегия MyLands. При регистрации в игре Вы получите код, который сможете активировать после регистрации на pirat.ca и получить 1000 дублонов.

Ваш код:
11f49771fdf057c9d51610e4a0925c3b46ddb655
 
     

Свободная энергия - Погоня за энергией нулевой точки / Free Energy - The race to zero point (Кристофер Туссэйнт) [1997 г., документальный, TVRip] VO

Ответить на тему
 
Автор
Сообщение

Пост 07-Апр-2012 05:25

[Q] 

memorro7

Штурман

Свободная энергия - Погоня за энергией нулевой точки / Free Energy - The race to zero point
Год выпуска: 1997
Производство: США
Жанр: документальный
Продолжительность серии: 01:48:41
Перевод: Профессиональный (одноголосый, закадровый)
Автор(ы) перевода: проект Zaryad
Субтитры: отсутствуют
Режиссер: Кристофер Туссэйнт
В ролях: Билл Дженкинс - ведущий,
Том Бирден - магистр естественных наук, инженер-атомщик,
Морей Кинг - автор книги “Использование энергии нулевой точки”,
Брайан О’Лири - физик, автор книги “Чудо в пустоте”,
Томас Валон - магистр физики,
Джин Мэннинг - автор книги “Грядущий переворот в электроэнергетике”,
Ларри Дэвенпорт - радиолюбитель,
Пол Пэнтон - изобретатель GEET-реактора,
Юджин Мэллов - редактор "журнала Инфинит Энерджи Магазин",
Хол Фокс - редактор журнала “Нью Энерджи Ньюс”,
Джеймс Паттерсон - основатель "Клин Энерджи Текнолоджиз",
Доктор Деннис Крейвенс - исследователь холодного синтеза,
Джон Хатчисон - исследователь альтернативной физики,
Джозеф Ньюман - изобретатель электро-магнитного двигателя-генератора,
Деннис Ли - изобретатель высокоэффективных тепловых насосов,
Трой Рид - изобретатель магнитного двигателя-генератора
Описание: Мы живем в огромном океане энергии. Все: каждый атом, каждая элементарная частица находится в постоянном движении, всегда вращается, даже в холодном темном пустом пространстве - абсолютном вакууме. Это то, что современная физика называет квантовым потоком вакуума. Древние называли его эфиром, метафизика - энергией жизненной силы.
Теперь это доказано как теоретически, так и математически. Уже не стоит вопрос о том, существует ли энергия нулевой точки. Он звучит по-другому: “Можем ли мы использовать этот неистощимый источник бесплатной энергии и применять одновременно недорогие и экологичные технологии?”
Если мы будем и дальше сжигать полезные ископаемые и полагаться на атомную энергию, то будущее нашей цивилизации имеет мрачные перспективы. Мы находимся в критическом положении, потому что объем промышленного загрязнения и количество радиоактивных отходов уже превысили возможности самоочищения Земли.
Мировые запасы нефти и газа будут истощены к 2025 году при сохранении нынешних темпов потребления. Но крупные корпорации и мировые правительства отказываются признавать надвигающийся кризис и сопротивляются техническому прогрессу, стараясь сохранить устаревшую политическую систему.
В научной среде появляются ученые-пионеры, физики-теоретики, а также изобретатели-энтузиасты, которые пытаются изменить наш взгляд на обуздание невидимых сил природы. Несмотря на насмешки, недостаток средств и активные попытки избавиться от этих людей и их работ, они вступили в борьбу с общепринятыми устаревшими догмами, пытаясь в жестокой схватке с глобальными корпорациями совершить революцию в науке. В этой передаче вы увидите разработки неутомимых изобретателей и дальновидных ученых, у которых, вероятно, и находится ключ к настоящей энергетической независимости всех людей на Земле: начиная от Николы Теслы и заканчивая технологией холодного синтеза, и не только.
Релиз:
Источник/Качество: TVRip
Формат: AVI
Видео кодек: DivX
Аудио кодек: MP3
Видео: 720x480 (1.50:1), 29.970 fps, DivX Codec 6.8.5/6.9.1 ~632 kbps avg, 0.06 bit/pixel
Аудио: 48 kHz, MPEG Layer 3, 1 ch, ~64.00 kbps avg
Format : AVI
Format/Info : Audio Video Interleave
File size : 550 MiB
Duration : 1h 48mn
Overall bit rate : 708 Kbps
Writing application : VirtualDubMod 1.5.10.2 (build 2542/release)
Writing library : VirtualDubMod build 2542/release
Video
ID : 0
Format : MPEG-4 Visual
Format settings, BVOP : 3
Format settings, QPel : No
Format settings, GMC : No warppoints
Format settings, Matrix : Default (H.263)
Muxing mode : Packed bitstream
Codec ID : DX50
Codec ID/Hint : DivX 5
Duration : 1h 48mn
Bit rate : 632 Kbps
Width : 720 pixels
Height : 480 pixels
Display aspect ratio : 3:2
Frame rate : 29.970 fps
Standard : NTSC
Color space : YUV
Chroma subsampling : 4:2:0
Bit depth : 8 bits
Scan type : Progressive
Compression mode : Lossy
Bits/(Pixel*Frame) : 0.061
Stream size : 491 MiB (89%)
Writing library : DivX 6.8.5 (UTC 2009-08-20)
Audio
ID : 1
Format : MPEG Audio
Format version : Version 1
Format profile : Layer 3
Codec ID : 55
Codec ID/Hint : MP3
Duration : 1h 48mn
Bit rate mode : Constant
Bit rate : 64.0 Kbps
Channel(s) : 1 channel
Sampling rate : 48.0 KHz
Compression mode : Lossy
Stream size : 49.8 MiB (9%)
Alignment : Split accross interleaves
Interleave, duration : 33 ms (1.00 video frame)
Interleave, preload duration : 500 ms
Смотрите также:
Другие «Релизы проекта Заряд»
Руководство по однополюсным двигателям Бедини (рус.)
Научный сериал «Энергия из вакуума»
д/ф «История магнитного генератора Джона Серла»
д/ф «Потерянные секреты Николы Теслы»
д/ф «Генератор Тесла (Грузинский вариант)»
д/ф «Тяжелый Уотергейт - Война против холодного ядерного синтеза»
д/ф «Кто убил электромобиль»
д/ф «Новая теория атомного ядра - Болотов Борис Васильевич»
д/ф «Начало импульсной энергетики будущего - Канарев Ф.М.»
Download / Скачать

Хотите скачать бесплатно? Зарегистрируйтесь на сайте (ссылка на регистрацию). Pirat.ca - самый быстрый торрент трекер в рунете!

Как скачивать  ·   Что такое торрент  ·   Рейтинг и ограничения

Показать сообщения:    
Ответить на тему

Текущее время: Сегодня 03:10

Часовой пояс: GMT + 4



Вы не можете начинать темы
Вы не можете отвечать на сообщения
Вы не можете редактировать свои сообщения
Вы не можете удалять свои сообщения
Вы не можете голосовать в опросах
Вы не можете прикреплять файлы к сообщениям
Вы не можете скачивать файлы

▼ Вниз