ML
     
  Уважаемый Гость!
Вы можете поддержать проект и зарегистрироваться у наших партнеров - онлайн-стратегия MyLands. При регистрации в игре Вы получите код, который сможете активировать после регистрации на pirat.ca и получить 1000 дублонов.

Ваш код:
193c38d0130f05c24de871678ea3ac181461757d
 
     

Век эгоизма. Часть 4 – Вся власть Хомячкам / The Century of the Self. Part 4 - Eight people sipping wine in Kettering (Адам Кёртис) [2002 г., документальный, TVRip] MVO [проект Zaryad]

Ответить на тему
 
Автор
Сообщение

Пост 14-Апр-2012 04:00

[Q] 

memorro7

Штурман

Век эгоизма. Часть 4 – Вся власть Хомячкам / The Century of the Self. Part 4 - Eight people sipping wine in Kettering
Год выпуска: 2002
Производство: Великобритания
Жанр: документальный
Продолжительность серии: 00:59:25
Перевод: Профессиональный (одноголосый, закадровый)
Автор(ы) перевода: проект Zaryad
Субтитры: отсутствуют
Режиссер: Адам Кёртис
В ролях: Вернер Эрхард
Мартин С. Бергманн
Тони Блэр
Билл Клинтон
Адам Кертис
Роберт Рич
Вильгельм Райх
Описание: Это история о становлении идеи, которая стала доминирующей в нашем обществе. Идеи о том, что самое главное в жизни – удовлетворение своих желаний. В предыдущих эпизодах было показано, как бизнес сформировал и развил в обществе идею удовлетворения неосознанных желаний. Он использовал идеи Зигмунда Фрейда для разработки методов выявления скрытых желаний потребителей, и затем начал удовлетворять эти желания, предлагая соответствующие товары. В завершающем эпизоде мы расскажем о том, как идея эгоизма стала доминировать в политике. В нем рассказывается история о том, как левые политики в Америке и Великобритании обратились к этим методам, чтобы вернуть себе власть. Они верили, что создают новые и лучшие формы демократии, которая действительно отражает чаяния людей. Но они не понимали, что целью тех, кто создавал эти методы, было не освобождение людей, а создание новых средств их контроля в эпоху массовой демократии.
Релиз:
Источник/Качество: TVRip
Формат: AVI
Видео кодек: DivX
Аудио кодек: MP3
Видео: 640x480 (1.33:1), 29.970 fps, DivX Codec 6.8.5/6.9.1 ~830 kbps avg, 0.09 bit/pixel
Аудио: 48 kHz, MPEG Layer 3, 1 ch, ~64.00 kbps avg
Format : AVI
Format/Info : Audio Video Interleave
File size : 385 MiB
Duration : 59mn 24s
Overall bit rate : 906 Kbps
Writing application : VirtualDubMod 1.5.10.2 (build 2542/release)
Writing library : VirtualDubMod build 2542/release
Video
ID : 0
Format : MPEG-4 Visual
Format settings, BVOP : 3
Format settings, QPel : No
Format settings, GMC : No warppoints
Format settings, Matrix : Default (H.263)
Muxing mode : Packed bitstream
Codec ID : DX50
Codec ID/Hint : DivX 5
Duration : 59mn 24s
Bit rate : 831 Kbps
Width : 640 pixels
Height : 480 pixels
Display aspect ratio : 4:3
Frame rate : 29.970 fps
Color space : YUV
Chroma subsampling : 4:2:0
Bit depth : 8 bits
Scan type : Progressive
Compression mode : Lossy
Bits/(Pixel*Frame) : 0.090
Stream size : 353 MiB (92%)
Writing library : DivX 6.8.5 (UTC 2009-08-20)
Audio
ID : 1
Format : MPEG Audio
Format version : Version 1
Format profile : Layer 3
Codec ID : 55
Codec ID/Hint : MP3
Duration : 59mn 24s
Bit rate mode : Constant
Bit rate : 64.0 Kbps
Channel(s) : 1 channel
Sampling rate : 48.0 KHz
Compression mode : Lossy
Stream size : 27.2 MiB (7%)
Alignment : Split accross interleaves
Interleave, duration : 33 ms (1.00 video frame)
Interleave, preload duration : 500 ms
Смотрите также:
Библия 21 века DVD-Video №1 - Новый мировой порядок
Высшая Социология (Григорий Климов)
Князь Мира Сего - Григорий Климов
Психиатрия индустрия смерти
Download / Скачать

Хотите скачать бесплатно? Зарегистрируйтесь на сайте (ссылка на регистрацию). Pirat.ca - самый быстрый торрент трекер в рунете!

Как скачивать  ·   Что такое торрент  ·   Рейтинг и ограничения



Последний раз редактировалось: memorro7 (2012-04-14 13:29), всего редактировалось 1 раз

UcrusPazzo

7670

Пост 25-Янв-2013 00:31 (спустя 9 месяцев 10 дней)

[Q] 


_________________
[Профиль]  [ЛС] 
Показать сообщения:    
Ответить на тему

Текущее время: Сегодня 18:08

Часовой пояс: GMT + 4



Вы не можете начинать темы
Вы не можете отвечать на сообщения
Вы не можете редактировать свои сообщения
Вы не можете удалять свои сообщения
Вы не можете голосовать в опросах
Вы не можете прикреплять файлы к сообщениям
Вы не можете скачивать файлы

▼ Вниз