ML
     
  Уважаемый Гость!
Вы можете поддержать проект и зарегистрироваться у наших партнеров - онлайн-стратегия MyLands. При регистрации в игре Вы получите код, который сможете активировать после регистрации на pirat.ca и получить 1000 дублонов.

Ваш код:
c3360d664ceb84802c84b88ed062a5d134e2ba97
 
     

План Кавказ / Plan Kavkaz (Наталья Родионова) [2008 г., Документальный, SATRip]

Ответить на тему
 
Автор
Сообщение

Пост 17-Апр-2012 17:38

[Q] 

glazik

Шкипер

План Кавказ / Plan Kavkaz
Год выпуска: 2008
Производство: Россия
Жанр: Документальный
Продолжительность серии: 00:52:36
Перевод: Не требуется
Оригинальный аудиопоток: русский
Субтитры: отсутствуют
Режиссер: Наталья Родионова
Описание: История о том, как иностранные спецслужбы в 90-е пытались отделить Чечню от России. В фильме Антона Верницкого "План Кавказ" неизвестные подробности известных событий и сенсационные признания участников заговора.
Меррих Беркан Яшар, он же Абубакар. 1948 года рождения , чеченец по национальности, бывший сотрудник радио "Свобода", журналист и политик, близкий к турецкой верхушке. С 17 лет Абубакар был завербован ЦРУ ... Именно там , тогда еще простой чеченский юноша в 1967 году и получил свой псевдоним, ставший его вторым именем - Беркан Яшар. Почти два десятка лет Абубакара планомерно готовили к активным действиям в Чечне. Герой фильма пересказывает своё покаянное письмо, которое он озаглавил: "Для открытой печати в СМИ России". В этом письме рассказ о том, как спецслужбы разных стран, прежде
всего Турции, США и Великобритании попытались в начале 90-х годов разделить Россию на мелкие, неподконтрольные Федеральному центру, части. Абубакар описывает знакомство с Шамилем Басаевым в 91 году во время угона самолета в Турцию и схему нелегальной переброски за границу через аэропорт г. Грозный российских необработанных алмазов. О 25 % от этого бизнеса, уходивших Джохару Дудаеву. Министры иностранных дел и обороны самопровозглашенной Ичкерии, сотрудник службы безопасности Дудаева, охранник Масхадова, муфтии Северо-кавказских республик, а также кадровые сотрудники ЦРУ и боевики, рассказывают о том, кто и как разжигал войну на Кавказе. О том кто являлся спонсорами боевых действий в Чечне. Каждый из зачинщиков извлекал собственную выгоду из военных действий на территории России. Кто-то - финансовую, кто-то - политическую. Один из сенсационных моментов фильма- это рассказ о том, что деньги , вырученные за время войны в Чечне, верхушка сепаратистов вкладывала и вкладывает до сих пор в разработку алмазных и золотых рудников в Африке. Которые приносят им прибыль до сих пор.
Источник/Качество: SATRip
Формат: AVI
Видео кодек: XviD
Аудио кодек: MP3
Видео: XviD, 1732 Кбит/сек, 712х560, 25.000 кадр/сек, Standard: PA
Аудио: MPEG layer 3, 56 Кбит/сек, 24.0 КГц, Joint stereo, Канал(ы): 2
Format : AVI
Format/Info : Audio Video Interleave
File size : 719 MiB
Duration : 55mn 55s
Overall bit rate : 1 798 Kbps
Writing library : VirtualDub-MPEG2 build 24600/release
Video
ID : 0
Format : MPEG-4 Visual
Format profile : Advanced [email protected]
Format settings, BVOP : Yes
Format settings, QPel : No
Format settings, GMC : No warppoints
Format settings, Matrix : Default (H.263)
Muxing mode : Packed bitstream
Codec ID : XVID
Codec ID/Hint : XviD
Duration : 55mn 55s
Bit rate : 1 733 Kbps
Width : 712 pixels
Height : 560 pixels
Display aspect ratio : 1.271
Frame rate : 25.000 fps
Color space : YUV
Chroma subsampling : 4:2:0
Bit depth : 8 bits
Scan type : Progressive
Bits/(Pixel*Frame) : 0.174
Stream size : 693 MiB (96%)
Writing library : XviD 1.1.2 (UTC 2006-11-01)
Audio
ID : 1
Format : MPEG Audio
Format version : Version 2
Format profile : Layer 3
Mode : Joint stereo
Mode extension : Intensity Stereo + MS Stereo
Codec ID : 55
Codec ID/Hint : MP3
Duration : 55mn 55s
Bit rate mode : Constant
Bit rate : 56.0 Kbps
Channel(s) : 2 channels
Sampling rate : 24.0 KHz
Stream size : 22.4 MiB (3%)
Alignment : Split accross interleaves
Interleave, duration : 40 ms (1.00 video frame)
Interleave, preload duration : 500 ms
Download / Скачать

Хотите скачать бесплатно? Зарегистрируйтесь на сайте (ссылка на регистрацию). Pirat.ca - самый быстрый торрент трекер в рунете!

Как скачивать  ·   Что такое торрент  ·   Рейтинг и ограничения



Последний раз редактировалось: glazik (2012-04-19 11:15), всего редактировалось 11 раз(а)

alekso73

1083

Пост 21-Апр-2012 07:55 (спустя 3 дня)

[Q] 

glazik
Спасибо!
Правда не знаю на сколько можно доверять этому Абубакару, с какой целью он такой откровенный стал,ну и остальные персонажи тоже......
Не уверен чтобы таких совесть замучила....
[Профиль]  [ЛС] 
Показать сообщения:    
Ответить на тему

Текущее время: Сегодня 10:04

Часовой пояс: GMT + 4



Вы не можете начинать темы
Вы не можете отвечать на сообщения
Вы не можете редактировать свои сообщения
Вы не можете удалять свои сообщения
Вы не можете голосовать в опросах
Вы не можете прикреплять файлы к сообщениям
Вы не можете скачивать файлы

▼ Вниз