ML
     
  Уважаемый Гость!
Вы можете поддержать проект и зарегистрироваться у наших партнеров - онлайн-стратегия MyLands. При регистрации в игре Вы получите код, который сможете активировать после регистрации на pirat.ca и получить 1000 дублонов.

Ваш код:
a01a592a88af5f9996a6d1baec61b18a1769954d
 
     

Энергия из вакуума. Часть 1 - Введение / Energy from the vacuum. Part 1 - Introduction (Энтони Дж. Креддок) [2006 г., документальный, DVDRip] MVO [проект Zaryad]

Ответить на тему
 
Автор
Сообщение

Пост 21-Апр-2012 10:44

[Q] 

memorro7

Штурман

Энергия из вакуума. Часть 1 - Введение / Energy from the vacuum. Part 1 - Introduction
Год выпуска: 2006
Производство: США
Жанр: документальный
Продолжительность серии: 02:10:06
Перевод: Профессиональный (одноголосый, закадровый)
Автор(ы) перевода: проект Zaryad
Субтитры: отсутствуют
Режиссер: Энтони Дж. Креддок
В ролях: Том Бирден, Джон Бедини
Описание: В первой части сериала выступает: магистр по ядерной физике, подполковник Армии США в отставке Том Бирден, который рассказывает об основных принципах получения чистой энергии в неограниченном количестве из вакуума. На примере своего изобретения: Неподвижного Электромагнитного Генератора (НЭГ). Освещает малоизвестные работы Николы Тесла и других малоизвестных изобретателях и их сверхединичные устройства.
«Мы стараемся говорить правду как можно быстрее, чтобы она была услышана как можно большим количеством людей, и это лучшее, что мы можем делать, если не заставим правительство пошевелиться. Если удастся достучаться до правительства, оно может просто послушать нас, издав соответствующий указ. Так и будет. Не только мы, но и другие изобретатели, обладают рабочими системами. Мы не единственные. Но нужно делать все, что в наших силах, чтобы построить любую рабочую систему.
Это мое личное мнение. Многие считают, что мы можем продолжать жить, как живем, загрязняя всю планету и увеличивая объемы потребления электроэнергии. Каждый хочет жить в современном мире, хочет вылезти из грязи, из трущоб, хочет чтобы у него был свет и бытовая техника, хочет, чтобы были промышленные предприятия, хочет работу, дома и школы. Это естественная жажда человеческого сердца. Но продолжать жить так, как мы живем сейчас, означает уничтожать планету и вынужденно уничтожать друг друга. Мне кажется, мы должны быть мудрее.»
Выступление перед членами сената и конгресса 2000 г Том Бирден.
Смотрите также:
Другие «Релизы проекта Заряд»
Руководство по однополюсным двигателям Бедини (рус.)
Научный сериал «Энергия из вакуума»
д/ф «История магнитного генератора Джона Серла»
д/ф «Потерянные секреты Николы Теслы»
д/ф «Генератор Тесла (Грузинский вариант)»
д/ф «Тяжелый Уотергейт - Война против холодного ядерного синтеза»
д/ф «Кто убил электромобиль»
д/ф «Новая теория атомного ядра - Болотов Борис Васильевич»
д/ф «Начало импульсной энергетики будущего - Канарев Ф.М.»
д/ф «Свободная энергия - Погоня за энергией нулевой точки»
Источник/Качество: DVDRip
Формат: AVI
Видео кодек: DivX
Аудио кодек: MP3
Видео: 544x304 (1.79:1), 25 fps, DivX Codec 6.8.5/6.9.1 ~662 kbps avg, 0.16 bit/pixel
Аудио: 44.100 kHz, MPEG Layer 3, 1 ch, ~64.00 kbps avg
Format : AVI
Format/Info : Audio Video Interleave
File size : 685 MiB
Duration : 2h 10mn
Overall bit rate : 736 Kbps
Writing application : VirtualDubMod 1.5.10.2 (build 2542/release)
Writing library : VirtualDubMod build 2542/release
Video
ID : 0
Format : MPEG-4 Visual
Format settings, BVOP : 1
Format settings, QPel : No
Format settings, GMC : No warppoints
Format settings, Matrix : Default (H.263)
Muxing mode : Packed bitstream
Codec ID : DX50
Codec ID/Hint : DivX 5
Duration : 2h 10mn
Bit rate : 662 Kbps
Width : 544 pixels
Height : 304 pixels
Display aspect ratio : 16:9
Frame rate : 25.000 fps
Color space : YUV
Chroma subsampling : 4:2:0
Bit depth : 8 bits
Scan type : Progressive
Compression mode : Lossy
Bits/(Pixel*Frame) : 0.160
Stream size : 617 MiB (90%)
Writing library : DivX 6.8.5 (UTC 2009-08-20)
Audio
ID : 1
Format : MPEG Audio
Format version : Version 1
Format profile : Layer 3
Codec ID : 55
Codec ID/Hint : MP3
Duration : 2h 10mn
Bit rate mode : Constant
Bit rate : 64.0 Kbps
Channel(s) : 1 channel
Sampling rate : 44.1 KHz
Compression mode : Lossy
Stream size : 59.6 MiB (9%)
Alignment : Split accross interleaves
Interleave, duration : 40 ms (1.00 video frame)
Interleave, preload duration : 500 ms
Download / Скачать

Хотите скачать бесплатно? Зарегистрируйтесь на сайте (ссылка на регистрацию). Pirat.ca - самый быстрый торрент трекер в рунете!

Как скачивать  ·   Что такое торрент  ·   Рейтинг и ограничения



Последний раз редактировалось: memorro7 (2012-04-25 01:55), всего редактировалось 1 раз
Показать сообщения:    
Ответить на тему

Текущее время: Сегодня 09:49

Часовой пояс: GMT + 4



Вы не можете начинать темы
Вы не можете отвечать на сообщения
Вы не можете редактировать свои сообщения
Вы не можете удалять свои сообщения
Вы не можете голосовать в опросах
Вы не можете прикреплять файлы к сообщениям
Вы не можете скачивать файлы

▼ Вниз