ML
     
  Уважаемый Гость!
Вы можете поддержать проект и зарегистрироваться у наших партнеров - онлайн-стратегия MyLands. При регистрации в игре Вы получите код, который сможете активировать после регистрации на pirat.ca и получить 1000 дублонов.

Ваш код:
73640f24f8a0f579e128ea7346fd2db2b1009143
 
     

Морские динозавры 3D: Путешествие в доисторический мир / Sea Rex 3D: Journey to a Prehistoric World (Ронан Шапален / Ronan Chapalain, Паскаль Вонг / Pascal Vuong) [2010 г., Документальный, BDRip] Dub

Ответить на тему
 
Автор
Сообщение

Пост 22-Апр-2012 15:03

[Q] 

UcrusPazzo

Морские динозавры 3D: Путешествие в доисторический мир /
Sea Rex 3D: Journey to a Prehistoric World
-Год выпуска: 2010
Мировая премьера: 14 мая 2010
Российская премьера: 23 сентября 2010, «Люксор»
Дата выхода DVD: 21 октября 2010, «Columbia/Sony»
Релиз на Blu-Ray: 21 октября 2010, «Columbia/Sony»
Производство: Франция, Великобритания, Mantello Brothers Productions, N3D Land Productions
Жанр: Документальный
Продолжительность серии: 00:40:59
Перевод: Профессиональный (полное дублирование)
Субтитры: отсутствуют-Режиссер: Ронан Шапален / Ronan Chapalain, Паскаль Вонг / Pascal Vuong
Сценарий: Ронан Шапален, Ричард Долерн, Паскаль Вонг
Продюсер: Франсуа Мантелло, Катрин Вонг, Паскаль Вонг
Оператор: Кристоф Грелье
Композитор: Франк Маршаль
Художник: Иржи Ганибал мл.
Монтаж: Хьюго Каруана-Бюджет: $5 000 000
Сборы в США: $5 293 838
Сборы в мире: + $8 880 084 = $14 173 922
Сборы в России: $949 932
Зрители: Франция - 138 тыс., Великобритания - 16.4 тыс.-В ролях: Гийом Денеф, Норберт Феррер, Хлоя Холлингс, Ричард Райдер
Роли дублировали: Эммануил Виторган-Описание: Откройте для себя самую интересную страницу жизни планеты Земля!
С этим фильмом в составе отважной команды вы перенесетесь на 200 млн. лет назад, в невероятный мир далеких времен. Впервые вы отправляетесь в незабываемое и опасное путешествие на встречу с повелителями океана знаменитого Юрского периода — гигантскими морскими динозаврами.
Вас ждут поразительные открытия о жизни древней и современной фауны, и невероятная красота подводных ландшафтов, от которых захватывает дух. Удивляйтесь, испытайте страх и восторг от встречи с великим прошлым нашей планеты. В совершенном стереоскопическом 3D изображении вы получите всю экзотику доисторической эпохи в полной реальности до мельчайших деталей. Мы подарим вам новый мир, о существовании которого вы даже не подозревали…-Источник/Качество: BDRip
Формат: AVI
Видео кодек: XviD
Аудио кодек: AC3
Видео: 704x400 (1.76:1), 23.976 fps, XviD MPEG-4 ~2146 kbps avg, 0.32 bit/pixel
Аудио рус: 48 kHz, AC3 Dolby Digital, 3/2 (L,C,R,l,r) + LFE ch, ~448 kbps
Аудио англ: 48 kHz, AC3 Dolby Digital, 3/2 (L,C,R,l,r) + LFE ch, ~448 kbps
Общее
Формат : AVI
Формат/Информация : Audio Video Interleave
Размер файла : 896 Мбайт
Продолжительность : 40 м.
Общий поток : 3057 Кбит/сек
Название фильма : Морские динозавры (2010) BDRip
Режиссёр : Sky™
Программа кодирования : VirtualDubMod 1.5.10.2 (build 2542/release)
Формат оригинала/Имя : Documentary
Правообладатель : http://hqclub.net
Примечание : R.G.HQCLUB
Видео
Идентификатор : 0
Формат : MPEG-4 Visual
Профиль формата : Advanced [email protected]
Параметр BVOP формата : 1
Параметр QPel формата : Нет
Параметр GMC формата : Без точки перехода
Параметр матрицы формата : Выборочная
Идентификатор кодека : XVID
Идентификатор кодека/Подсказка : XviD
Продолжительность : 40 м.
Битрейт : 2147 Кбит/сек
Ширина : 704 пикселя
Высота : 400 пикселей
Соотношение сторон : 16:9
Частота кадров : 23,976 кадра/сек
Цветовое пространство : YUV
Субдискретизация насыщенности : 4:2:0
Битовая глубина : 8 бит
Тип развёртки : Прогрессивная
Метод сжатия : С потерями
Бит/(Пиксели*Кадры) : 0.318
Размер потока : 630 Мбайт (70%)
Библиотека кодирования : XviD 64
Аудио #1
Идентификатор : 1
Формат : AC-3
Формат/Информация : Audio Coding 3
Расширение режима : CM (complete main)
Параметр Endianness формата : Big
Идентификатор кодека : 2000
Продолжительность : 40 м.
Вид битрейта : Постоянный
Битрейт : 448 Кбит/сек
Каналы : 6 каналов
Расположение каналов : Front: L C R, Side: L R, LFE
Частота : 48,0 КГц
Битовая глубина : 16 бит
Метод сжатия : С потерями
Размер потока : 131 Мбайт (15%)
Выравнивание : Разделение по промежуткам
Продолжительность промежутка : 42 мс. (1,00 видеокадр)
Время предзагрузки промежутка : 500 мс.
Аудио #2
Идентификатор : 2
Формат : AC-3
Формат/Информация : Audio Coding 3
Расширение режима : CM (complete main)
Параметр Endianness формата : Big
Идентификатор кодека : 2000
Продолжительность : 40 м.
Вид битрейта : Постоянный
Битрейт : 448 Кбит/сек
Каналы : 6 каналов
Расположение каналов : Front: L C R, Side: L R, LFE
Частота : 48,0 КГц
Битовая глубина : 16 бит
Метод сжатия : С потерями
Размер потока : 131 Мбайт (15%)
Выравнивание : Разделение по промежуткам
Продолжительность промежутка : 42 мс. (1,00 видеокадр)
Время предзагрузки промежутка : 500 мс.
Download / Скачать

Хотите скачать бесплатно? Зарегистрируйтесь на сайте (ссылка на регистрацию). Pirat.ca - самый быстрый торрент трекер в рунете!

Как скачивать  ·   Что такое торрент  ·   Рейтинг и ограничения



Последний раз редактировалось: UcrusPazzo (2013-05-19 12:28), всего редактировалось 2 раз(а)

tommek

Морской Волк

231

Пост 30-Сен-2012 22:28 (спустя 5 месяцев 8 дней)

[Q] 

интересно

_________________
[Профиль]  [ЛС] 

Smulya

Морской Волк

80

Пост 12-Янв-2014 14:56 (спустя 1 год 3 месяца)

[Q] 

спасибо Раздающему респект!

_________________
[Профиль]  [ЛС] 
Показать сообщения:    
Ответить на тему

Текущее время: Сегодня 22:31

Часовой пояс: GMT + 4



Вы не можете начинать темы
Вы не можете отвечать на сообщения
Вы не можете редактировать свои сообщения
Вы не можете удалять свои сообщения
Вы не можете голосовать в опросах
Вы не можете прикреплять файлы к сообщениям
Вы не можете скачивать файлы

▼ Вниз