ML
     
  Уважаемый Гость!
Вы можете поддержать проект и зарегистрироваться у наших партнеров - онлайн-стратегия MyLands. При регистрации в игре Вы получите код, который сможете активировать после регистрации на pirat.ca и получить 1000 дублонов.

Ваш код:
6f9ab67d502902cc72a06c406977ddb589b7f39d
 
     

Игры Богов (Сезон: 1 / Серии: 1-13) (Сергей Стрижак) [2002 г., Документалистика, DVDRip] VO

Ответить на тему
 
Автор
Сообщение

Пост 24-Апр-2012 17:54

[Q] 

Apostle358

Корсар

Игры Богов
(Сезон: 1 / Серии: 1-13)
Год выпуска: 2002
Производство: Украина, Россия (Студия ЖАК)
Жанр: Документалистика
Продолжительность серии: 13 серий ~ по 00:45:00 минут
Субтитры: русские
Режиссер: Сергей Стрижак
Описание: Проект ИГРЫ БОГОВ - это последовательно развивающийся сериал фильмов в жанре публицистики, объединённых темой исследования древней и современной славяно-арийской культуры. Каждый фильм сериала имеет конкретную тему и строится на базе общения автора с ведающими людьми и другими источниками.
Проект ИГРЫ БОГОВ - это творческие встречи, лекции, семинары, общественные просмотры с обсуждением фильмов и другие культурные мероприятия, способствующие восстановлению природного потенциала человека.
Цель проекта ИГРЫ БОГОВ - привлечь внимание к ресурсам внутреннего мира человека, узнать, исследовать и сделать известными знания и опыт наших Щуров и Пращуров для восстановления способностей к восхождению по духовному пути эволюции. А также, научиться применять накопленный тысячелетиями опыт в повседневной жизни.
Источник/Качество: DVDRip
Формат: MPEG-4 Visual
Видео кодек: XviD
Аудио кодек: AC3
Видео: XVID(12 bits) 464х368 (1.34:1\1.34:1) 25.00 BitRate: 0.478
Аудио: MPEG Audio Layer 3(0x55) 48000Hz 2Ch 0Bits 131Kbps
Общее
Формат : AVI
Формат/Информация : Audio Video Interleave
Размер файла : 687 Мбайт
Продолжительность : 1 ч. 10 м.
Режим общего битрейта : Переменный
Общий поток : 1360 Кбит/сек
Видео
Идентификатор : 0
Формат : MPEG-4 Visual
Профиль формата : Advanced [email protected]
Параметр BVOP формата : 2
Параметр QPel формата : Да
Параметр GMC формата : 3 точки перехода
Параметр матрицы формата : Default (MPEG)
Идентификатор кодека : XVID
Идентификатор кодека/Подсказка : XviD
Продолжительность : 1 ч. 10 м.
Битрейт : 1257 Кбит/сек
Ширина : 464 пикселя
Высота : 368 пикселей
Соотношение сторон : 5:4
Частота кадров : 25,000 кадров/сек
Цветовое пространство : YUV
Субдискретизация насыщенности : 4:2:0
Битовая глубина : 8 бит
Тип развёртки : Чересстрочная
Порядок развёртки : Нижнее поле первое
Метод сжатия : С потерями
Бит/(Пиксели*Кадры) : 0.294
Размер потока : 635 Мбайт (92%)
Библиотека кодирования : XviD 1.1.2 (UTC 2006-11-01)
Аудио
Идентификатор : 1
Формат : MPEG Audio
Версия формата : Version 1
Профиль формата : Layer 3
Идентификатор кодека : 55
Идентификатор кодека/Подсказка : MP3
Продолжительность : 1 ч. 3 м.
Продолжительность оригинала : 1 ч. 8 м.
Вид битрейта : Переменный
Битрейт : 96,0 Кбит/сек
Каналы : 2 канала
Частота : 32,0 КГц
Метод сжатия : С потерями
Задержка видео : 14 мс.
Размер потока : 46,9 Мбайт (7%)
Выравнивание : Разделение по промежуткам
Продолжительность промежутка : 36 мс. (0,90 видеокадр)


Download / Скачать

Хотите скачать бесплатно? Зарегистрируйтесь на сайте (ссылка на регистрацию). Pirat.ca - самый быстрый торрент трекер в рунете!

Как скачивать  ·   Что такое торрент  ·   Рейтинг и ограничения



Последний раз редактировалось: Apostle358 (2012-04-26 01:53), всего редактировалось 5 раз(а)

Apostle358 ®

Корсар

151

Пост 24-Апр-2012 17:58 (спустя 4 минуты)

[Q] 

Рекомендую смотреть данный сериал с 3 или 5 серии, по 1 серии в день или неделю, смотря как кого хватит. После полного просмотра всех серий можно просмотреть с 1 по 3-4, т.к. там вообще о далёком речь идёт.
[Профиль]  [ЛС] 

C0y0te

1418

Пост 01-Авг-2012 20:27 (спустя 3 месяца 7 дней)

[Q] 


Есть еще 14 часть
[Профиль]  [ЛС] 

stiv007

Лоцман

Пост 31-Дек-2012 10:08 (спустя 4 месяца 29 дней)

[Q] 

C0y0te пишет:
Есть еще 14 часть
А где её можно посмотреть/скачать?
Может добавить сюда и обновить ... Тема-то одна. bn bs
[Профиль]  [ЛС] 

Cr0c

Лоцман

Пост 28-Май-2015 12:42 (спустя 2 года 4 месяца)

[Q] 

***** Ссылки на сторонние ресурсы - запрещены Исправлено модератором UcrusPazzo
Вот 14-ая серия, можно добавить.
Извините за некропост :)
[Профиль]  [ЛС] 

avn2015

Корсар

Пост 31-Окт-2015 20:22 (спустя 5 месяцев 3 дня)

[Q] 

Спасибо!!!
[Профиль]  [ЛС] 
Показать сообщения:    
Ответить на тему

Текущее время: Сегодня 16:27

Часовой пояс: GMT + 4



Вы не можете начинать темы
Вы не можете отвечать на сообщения
Вы не можете редактировать свои сообщения
Вы не можете удалять свои сообщения
Вы не можете голосовать в опросах
Вы не можете прикреплять файлы к сообщениям
Вы не можете скачивать файлы

▼ Вниз