ML
     
  Уважаемый Гость!
Вы можете поддержать проект и зарегистрироваться у наших партнеров - онлайн-стратегия MyLands. При регистрации в игре Вы получите код, который сможете активировать после регистрации на pirat.ca и получить 1000 дублонов.

Ваш код:
5f4e94775bc0501caff7b254e79328d304c817d9
 
     

Шокирующая Азия / Shocking Asia (Рольф Олсен / Rolf Olsen) [1976 г., ужасы, документальный, DVDRip]

Ответить на тему
 
Автор
Сообщение

Пост 25-Апр-2012 20:01

[Q] 

Дядя Витя

Шокирующая Азия

Shocking Asia
-Год: 1976
Страна: Германия (ФРГ), Гонконг
Слоган: «Not for the faint of heart...»
Продюсер: Вольфганг фон Шибер
Режиссер: Рольф Олсен
Композитор: Erwin Halletz
Продолжительность: 01:24:28
Жанр: документальный, ужасы
Премьера (мир): 24 сентября 1981
Операторы: Christopher Frymann, Франц Ледерле
Сценарий: Рольф Олсен, Ингеборг Стейн Штейнбах
Перевод: Одноголосый закадровый, профессиональный
Субтитры: отсутствуют-Описание:
Для большинства обывателей Золотого миллиарда (США, Западная Европа)
увидеть такое в 1976 года (протестанты, католики, стабильность и
процветание) было шоком. Память поколений короткая, в 20 веке она
сократилась еще сильнее, поэтому достаточно банальные и простые
бытовые вещи (кулинария, рождение и воспитание детей, народные
обряды Азии) подвергали «добропорядочных христиан» в ужас. Религиозные
обряды диких племен Южной Азии, основанные на самоистязании; храмы,
посвященные любви, в которых реализуются самые сокровенные фантазии;
операции по изменению пола и пересадке органов…

IMDb рейтинг: 4.5/10 - 388 votes

Формат: AVI
Качество: DVDRip
Видео кодек: XviD
Аудио кодек: MP3
Видео: XviD | 704x528 | 1023 кб/с
Аудио: MP3 | 48 KHz | 2 ch | 121 кб/с
К достоинствам фильма несомненно можно отнести
спокойную и неторопливую подачу, неспешный ритм
повествования. Фильм не ищет «мяса», он просто
рассказывает и показывает, как живут далёкие и
непонятные для других культуры.
General
Complete name : Shocking Asia I_[pirat.ca].avi
Format : AVI
Format/Info : Audio Video Interleave
File size : 699 MiB
Duration : 1h 24mn
Overall bit rate : 1 156 Kbps
Writing application : VirtualDubMod 1.5.4.1 (build 2178/release)
Writing library : VirtualDubMod build 2178/release
Video
ID : 0
Format : MPEG-4 Visual
Format profile : Advanced [email protected]
Format settings, BVOP : 1
Format settings, QPel : No
Format settings, GMC : No warppoints
Format settings, Matrix : Custom
Codec ID : XVID
Codec ID/Hint : XviD
Duration : 1h 24mn
Bit rate : 1 023 Kbps
Width : 704 pixels
Height : 528 pixels
Display aspect ratio : 4:3
Frame rate : 25.000 fps
Color space : YUV
Chroma subsampling : 4:2:0
Bit depth : 8 bits
Scan type : Progressive
Compression mode : Lossy
Bits/(Pixel*Frame) : 0.110
Stream size : 618 MiB (88%)
Writing library : XviD 1.1.0 Beta1 (UTC 2005-01-16)
Audio
ID : 1
Format : MPEG Audio
Format version : Version 1
Format profile : Layer 3
Mode : Joint stereo
Mode extension : MS Stereo
Codec ID : 55
Codec ID/Hint : MP3
Duration : 1h 24mn
Bit rate mode : Variable
Bit rate : 121 Kbps
Nominal bit rate : 128 Kbps
Channel(s) : 2 channels
Sampling rate : 48.0 KHz
Compression mode : Lossy
Stream size : 73.1 MiB (10%)
Alignment : Aligned on interleaves
Interleave, duration : 24 ms (0.60 video frame)
Interleave, preload duration : 546 ms
Writing library : LAME3.90.
Encoding settings : -m j -V 4 -q 2 -lowpass 17.6 --abr 128
Language : Russian
Этот фильм рассказывает о самых невероятных сторонах жизни
народов современной Азии, реальность которой зачастую гораздо
фантастичнее любого вымысла ...
Download / Скачать

Хотите скачать бесплатно? Зарегистрируйтесь на сайте (ссылка на регистрацию). Pirat.ca - самый быстрый торрент трекер в рунете!

Как скачивать  ·   Что такое торрент  ·   Рейтинг и ограничения



Последний раз редактировалось: Дядя Витя (2012-04-25 20:35), всего редактировалось 2 раз(а)

ksg111ban

Гроза морей

Пост 25-Апр-2012 20:17 (спустя 16 минут)

[Q] 

Ну в сегодняшних реалиях шокирующим он мало кому покажется,но в 80х на видеокассетах,обычному советскому обывателю смотреть было дико интересно,глаза на лоб лезли.Всё-таки железный занавес делал своё дело.Был ещё популярен фильм немецких документалистов о сексуальной революции американского общества.

_________________
[Профиль]  [ЛС] 

Дядя Витя ®

53839

Пост 25-Апр-2012 20:25 (спустя 8 минут)

[Q] 

ksg111ban, да ... это ретро чистой воды )))

_________________
?
[Профиль]  [ЛС] 

UcrusPazzo

7669

Пост 25-Апр-2012 23:03 (спустя 2 часа 37 минут)

[Q] 

Это точно должно быть в этом разделе? ))))

_________________
[Профиль]  [ЛС] 

Дядя Витя ®

53839

Пост 26-Апр-2012 16:09 (спустя 17 часов)

[Q] 

UcrusPazzo, ну точно низнаю ))
Документалистика тоже бывает разной так-то )))
Впрочем, Вам решать уважаемый - Вы же тут начальнег ))) ad

_________________
?
[Профиль]  [ЛС] 

agafonkin.62

Морской Волк

Пост 22-Янв-2013 17:21 (спустя 8 месяцев 26 дней)

[Q] 

VIT74, Помогите скачать пожалуйста
[Профиль]  [ЛС] 

agafonkin.62

Морской Волк

Пост 22-Янв-2013 17:21 (спустя 0 секунд)

[Q] 

VIT74, Помогите скачать пожалуйста
[Профиль]  [ЛС] 

Дядя Витя ®

53839

Пост 23-Янв-2013 18:52 (спустя 1 день 1 час)

[Q] 

agafonkin.62, к великому сожалению, уже не сидирую (

_________________
?
[Профиль]  [ЛС] 

ElSkorpio

16

Пост 09-Май-2014 19:21 (спустя 1 год 3 месяца)

[Q] 

AntiZip Кто здеся?

_________________
[Профиль]  [ЛС] 

Дядя Витя ®

53839

Пост 10-Май-2014 20:29 (спустя 1 день 1 час)

[Q] 

ElSkorpio,
Пиратка рулез!!!

_________________
?
[Профиль]  [ЛС] 
Показать сообщения:    
Ответить на тему

Текущее время: Сегодня 15:32

Часовой пояс: GMT + 4



Вы не можете начинать темы
Вы не можете отвечать на сообщения
Вы не можете редактировать свои сообщения
Вы не можете удалять свои сообщения
Вы не можете голосовать в опросах
Вы не можете прикреплять файлы к сообщениям
Вы не можете скачивать файлы

▼ Вниз