ML
     
  Уважаемый Гость!
Вы можете поддержать проект и зарегистрироваться у наших партнеров - онлайн-стратегия MyLands. При регистрации в игре Вы получите код, который сможете активировать после регистрации на pirat.ca и получить 1000 дублонов.

Ваш код:
c3360d664ceb84802c84b88ed062a5d134e2ba97
 
     

За секунду до катастрофы / Seconds from Disaster (Дэн Голд, Пол Нельсон / Dan Gold, Paul Nelson) [2011 г., Документальный, SATRip] VO [Poleglot] (Кораблекрушение парома у Греческих островов. Греция. Афины. 26 сентября 2000 год.)

Ответить на тему
 
Автор
Сообщение

Пост 26-Апр-2012 16:08

[Q] 

glazik

Шкипер

За секунду до катастрофы / Seconds from Disaster
Год выпуска: 2011
Производство: США, Darlow Smithson Produсtions
Жанр: Документальный
Продолжительность серии: 00:50:03
Перевод: Любительский (одноголосый, закадровый)
Автор(ы) перевода: Poleglot
Субтитры: отсутствуют
Режиссер: Дэн Голд, Пол Нельсон / Dan Gold, Paul Nelson
Описание:
Кораблекрушение парома у Греческих островов. Греция. Афины.
26 сентября 2000 год.

Американский документальный телевизионный сериал, посвящённый расследованию техногенных катастроф и стихийных бедствий в современной истории, а также анализу причин и событий, которые привели к возникновению каждой из катастроф. Для посекундной реконструкции событий в сериале используются официальные документы, интервью и свидетельские показания.
Источник/Качество: SATRip
Формат: AVI
Видео кодек: XviD
Аудио кодек: MP3
Видео: 720x400, 25 fps, 1498 kbps
Аудио: 48.0 kHz, 2 ch, 128.00 kbps
Format : AVI
Format/Info : Audio Video Interleave
File size : 690 MiB
Duration : 50mn 14s
Overall bit rate : 1 920 Kbps
Writing application : VirtualDubModRus 1.5.10.2 (build 2542/release)
Writing library : VirtualDubMod build 2542/release
Video
ID : 0
Format : MPEG-4 Visual
Format profile : Advanced [email protected]
Format settings, BVOP : Yes
Format settings, QPel : No
Format settings, GMC : No warppoints
Format settings, Matrix : Default (H.263)
Codec ID : XVID
Codec ID/Hint : XviD
Duration : 50mn 14s
Bit rate : 1 718 Kbps
Width : 720 pixels
Height : 400 pixels
Display aspect ratio : 16:9
Frame rate : 25.000 fps
Color space : YUV
Chroma subsampling : 4:2:0
Bit depth : 8 bits
Scan type : Progressive
Bits/(Pixel*Frame) : 0.239
Stream size : 618 MiB (89%)
Writing library : Lavc52.87.1
Audio
ID : 1
Format : MPEG Audio
Format version : Version 1
Format profile : Layer 3
Mode : Joint stereo
Mode extension : MS Stereo
Codec ID : 55
Codec ID/Hint : MP3
Duration : 50mn 14s
Bit rate mode : Constant
Bit rate : 192 Kbps
Channel(s) : 2 channels
Sampling rate : 48.0 KHz
Stream size : 69.0 MiB (10%)
Alignment : Split accross interleaves
Interleave, duration : 40 ms (1.00 video frame)
Interleave, preload duration : 500 ms
Writing library : LAME3.98.2
Download / Скачать

Хотите скачать бесплатно? Зарегистрируйтесь на сайте (ссылка на регистрацию). Pirat.ca - самый быстрый торрент трекер в рунете!

Как скачивать  ·   Что такое торрент  ·   Рейтинг и ограничения

Показать сообщения:    
Ответить на тему

Текущее время: Сегодня 10:06

Часовой пояс: GMT + 4



Вы не можете начинать темы
Вы не можете отвечать на сообщения
Вы не можете редактировать свои сообщения
Вы не можете удалять свои сообщения
Вы не можете голосовать в опросах
Вы не можете прикреплять файлы к сообщениям
Вы не можете скачивать файлы

▼ Вниз